<?xml version="1.0" standalone="no"?>
<!DOCTYPE svg PUBLIC "-//W3C//DTD SVG 1.1//EN" "http://www.w3.org/Graphics/SVG/1.1/DTD/svg11.dtd" >
<svg xmlns="http://www.w3.org/2000/svg" xmlns:xlink="http://www.w3.org/1999/xlink" version="1.1">
<metadata>
Created by FontForge 20170812 at Sat Oct 29 05:55:29 2022
 By www-data
</metadata>
<defs>
<font id="TheSantaRegular" horiz-adv-x="0" >
  <font-face 
    font-family="The Santa"
    font-weight="400"
    font-stretch="normal"
    units-per-em="1000"
    panose-1="0 0 0 0 0 0 0 0 0 0"
    ascent="800"
    descent="-200"
    x-height="408.092"
    cap-height="806.512"
    bbox="-283.001 -402.696 1097.34 971.178"
    underline-thickness="50"
    underline-position="-100"
    unicode-range="U+000A-20AC"
  />
<missing-glyph horiz-adv-x="527" 
d="M50 700h427v-700h-427v700zM78 680l185 -309l186 309h-371zM251 350l-180 300v-601zM264 329l-185 -308h370zM276 350l181 -303v605z" />
    <glyph glyph-name=".notdef" horiz-adv-x="527" 
d="M50 700h427v-700h-427v700zM78 680l185 -309l186 309h-371zM251 350l-180 300v-601zM264 329l-185 -308h370zM276 350l181 -303v605z" />
    <glyph glyph-name=".null" 
 />
    <glyph glyph-name=".null" 
 />
    <glyph glyph-name="LF" unicode="&#xa;" 
 />
    <glyph glyph-name="controlCR" unicode="&#xd;" 
 />
    <glyph glyph-name="space" unicode=" " horiz-adv-x="309" 
 />
    <glyph glyph-name="exclam" unicode="!" horiz-adv-x="226" 
d="M173.864 819.66c4.66699 -30.4375 0.724609 -63.2109 -0.211914 -93.9004c-0.962891 -31.3066 -1.84473 -62.6172 -2.65918 -93.9277c-1.54785 -59.6416 -2.82129 -119.293 -3.8291 -178.948c-2.06152 -122.317 -2.72266 -244.653 -4.08594 -366.979
c-0.486328 -43.5879 -111.093 -43.0479 -110.615 0c1.37695 123.889 5.68848 247.674 10.918 371.454c2.58789 61.1543 5.45508 122.295 8.60547 183.422c1.61133 31.3105 3.29883 62.6172 5.06348 93.9238c1.72363 30.5723 2.0166 61.9053 9.44727 91.6992
c4.22168 16.9355 35.7803 19.082 48.8008 18.1592c15.5186 -1.09863 35.8477 -7.15625 38.5664 -24.9023zM155.574 -87.3291c1.74609 -12.624 0.970703 -25.6309 2.56348 -38.3584c1.18848 -9.54102 -8.61426 -16.9629 -15.5547 -21.3965
c-10.8418 -6.92676 -24.9512 -8.54688 -37.5391 -8.86621c-19.4512 -0.495117 -50.5283 7.05664 -53.0938 30.2617c-1.35938 12.3047 -3.2002 26.1211 -0.756836 38.3584c2.01172 10.0811 6.83594 15.6396 15.2832 21.0361c10.6572 6.80957 24.5283 8.39844 36.9053 8.71387
c19.5908 0.5 49.0469 -6.97559 52.1924 -29.749z" />
    <glyph glyph-name="quotedbl" unicode="&#x22;" horiz-adv-x="295" 
d="M86.8584 654.682c13.9834 0 34.4404 -4.69727 36.8525 -21.0029c3.3125 -22.3994 6.04395 -44.7002 8.22656 -67.2344c1.65625 -17.1426 -27.8135 -22.2646 -39.0654 -22.2646c-13.9746 0 -37.6436 4.92773 -39.0654 22.2637
c-1.8457 22.4355 -3.10547 44.7363 -3.79883 67.2344c-0.5 16.3145 25.3379 21.0039 36.8506 21.0039zM244.251 568.519c3.56934 -17.1699 -30.0811 -22.8281 -40.0498 -22.8281c-15.7568 0 -36.6758 5.18066 -40.0469 22.8271
c-4.29785 22.5078 -7.58789 46.4199 -3.96973 69.2021c4.69824 29.5732 73.7822 30.6084 76.6494 0c2.18262 -23.2998 2.62793 -46.1494 7.41699 -69.2012z" />
    <glyph glyph-name="quotedbl" unicode="&#x201d;" horiz-adv-x="295" 
d="M86.8584 654.682c13.9834 0 34.4404 -4.69727 36.8525 -21.0029c3.3125 -22.3994 6.04395 -44.7002 8.22656 -67.2344c1.65625 -17.1426 -27.8135 -22.2646 -39.0654 -22.2646c-13.9746 0 -37.6436 4.92773 -39.0654 22.2637
c-1.8457 22.4355 -3.10547 44.7363 -3.79883 67.2344c-0.5 16.3145 25.3379 21.0039 36.8506 21.0039zM244.251 568.519c3.56934 -17.1699 -30.0811 -22.8281 -40.0498 -22.8281c-15.7568 0 -36.6758 5.18066 -40.0469 22.8271
c-4.29785 22.5078 -7.58789 46.4199 -3.96973 69.2021c4.69824 29.5732 73.7822 30.6084 76.6494 0c2.18262 -23.2998 2.62793 -46.1494 7.41699 -69.2012z" />
    <glyph glyph-name="quotedbl" unicode="&#x201c;" horiz-adv-x="295" 
d="M86.8584 654.682c13.9834 0 34.4404 -4.69727 36.8525 -21.0029c3.3125 -22.3994 6.04395 -44.7002 8.22656 -67.2344c1.65625 -17.1426 -27.8135 -22.2646 -39.0654 -22.2646c-13.9746 0 -37.6436 4.92773 -39.0654 22.2637
c-1.8457 22.4355 -3.10547 44.7363 -3.79883 67.2344c-0.5 16.3145 25.3379 21.0039 36.8506 21.0039zM244.251 568.519c3.56934 -17.1699 -30.0811 -22.8281 -40.0498 -22.8281c-15.7568 0 -36.6758 5.18066 -40.0469 22.8271
c-4.29785 22.5078 -7.58789 46.4199 -3.96973 69.2021c4.69824 29.5732 73.7822 30.6084 76.6494 0c2.18262 -23.2998 2.62793 -46.1494 7.41699 -69.2012z" />
    <glyph glyph-name="numbersign" unicode="#" horiz-adv-x="682" 
d="M607.479 339.139c7.8584 0.157227 24.7861 -3.28223 24.7812 -14.1104c0 -11.0986 -16.6025 -13.9473 -24.7891 -14.1318c-33.5518 -0.742188 -67.0898 -1.88574 -100.619 -3.24023c-0.193359 -7.55176 -0.386719 -15.1084 -0.526367 -22.665
c-0.548828 -29.709 -0.616211 -59.3945 -0.485352 -89.0801c11.4902 0.00488281 22.9941 -0.193359 34.5205 -0.688477c24.8789 -1.06641 25.0723 -24.5645 -0.000976562 -23.4893c-11.4941 0.490234 -22.9707 0.688477 -34.4336 0.683594
c0.364258 -39.1689 1.16992 -78.333 2.21875 -117.516c1.00391 -37.5439 2.24609 -75.0518 3.53809 -112.582c0.59375 -17.2822 0.828125 -34.5693 1.48047 -51.8516c0.382812 -10.0635 0.882812 -20.1221 1.04004 -30.1943
c0.0361328 -2.12012 0.891602 -16.5762 -0.850586 -21.0225c7.48926 -7.78613 6.22461 -17.0664 -0.647461 -24.8574c-0.490234 -0.557617 -0.985352 -1.11523 -1.47559 -1.67285c-17.4893 -19.8301 -58.4941 -15.3115 -76.8115 0
c-11.2832 9.42871 -11.832 29.5645 -14.748 43.2422c-4.25781 19.9688 -7.18359 40.2168 -10.1582 60.415c-5.49512 37.3145 -8.63672 74.9307 -11.6211 112.52c-3.61816 45.5508 -5.60742 91.3037 -6.74609 137.07c-28.5342 -2.87109 -57.0234 -6.42676 -85.5078 -10.1172
c-0.283203 -50.3438 0.337891 -100.705 1.75586 -151.009c1.93945 -68.8955 8.37988 -137.908 8.63184 -206.826c3.4834 -4.61719 4.7207 -10.1084 1.42188 -16.333c-2.22363 -4.20312 -5.24805 -7.98828 -8.50195 -11.4404
c-22.3232 -23.6953 -89.5488 -21.6387 -97.3975 15.0371c-15.3691 71.7979 -19.2266 146.387 -23.2051 219.562c-2.4707 45.3711 -3.7627 90.7598 -4.07812 136.166c-30.2715 -3.08789 -60.5967 -5.42383 -91.0293 -6.31445c-25.2031 -0.738281 -24.7979 22.7637 0 23.4883
c30.4199 0.886719 60.7266 3.22266 90.9658 6.30566c0.00878906 20.1582 0.18457 40.3164 0.548828 60.4795c0.355469 19.5459 0.868164 39.1006 1.52539 58.6465c-34.3535 -3.71777 -68.707 -7.49805 -103.132 -10.8965
c-9.27539 -0.914062 -27.9619 -0.693359 -32.3271 10.4639c-4.36523 11.166 9.77539 16.9268 18.3584 18.4297c6.62012 1.16113 14.0322 5.25195 20.2021 7.87109c7.0791 2.99707 19.5684 2.85352 27.0713 -1.48535c23.6279 3.01074 47.3281 5.73828 71.0869 8.20508
c4.98242 116.31 15.7168 232.402 34.4209 347.294c4.37012 26.8506 37.207 34.4746 60.4795 34.4746c17.417 0 63.8809 -8.15039 60.4785 -34.4746c-14.4648 -111.876 -25.9951 -224.081 -32.2012 -336.664c26.3154 1.83594 52.6572 3.41992 79.0039 4.79688
c0.702148 137.854 6.92188 277.931 31.5811 412.939c4.4375 24.2939 33.3223 31.2432 54.8174 31.2432c17.3135 0 55.8701 -7.07031 54.8174 -31.2432c-5.93164 -136.216 -18.4746 -271.742 -23.2002 -408.003c33.3271 1.07129 66.5908 1.89941 99.7471 2.57422z
M305.822 179.366c28.2461 3.66309 56.502 7.18848 84.8018 10.0459c-0.486328 25.9688 -0.756836 51.9287 -0.891602 77.8477c-0.0585938 11.4268 -0.0859375 22.8857 -0.0859375 34.3574c-14.627 -0.917969 -29.2539 -1.80859 -43.876 -2.84863
c-12.21 -0.873047 -24.4023 -1.85449 -36.5859 -2.89453c-1.09375 -23.6191 -2.02539 -47.252 -2.60156 -70.9072c-0.369141 -15.1943 -0.581055 -30.3975 -0.760742 -45.6006z" />
    <glyph glyph-name="dollar" unicode="$" horiz-adv-x="494" 
d="M397.535 500.873c-6.80078 38.3721 -34.7451 75.0693 -71.3662 90.4482c-4.25293 -101.971 -12.1875 -203.814 -18.9023 -305.658c61.8115 -63.6025 131.427 -131.724 126.953 -227.393c-1.94922 -41.667 -17.8184 -92.0283 -50.1055 -120.144
c-22.1338 -19.2764 -51.2568 -28.4893 -80.5059 -29.4033c1.17871 -18.6416 2.41211 -37.2832 3.99609 -55.8975c1.70605 -20.0771 5.82422 -40.748 4.375 -60.8477c-1.61523 -22.4355 -56.0098 -25.2393 -61.7432 -4.76172
c-11.0264 39.3799 -9.07715 85.7588 -9.61719 126.498c-0.0273438 2.01172 -0.0136719 4.02832 -0.03125 6.04492c-76.96 30.4424 -110.44 115.531 -130.531 192.343c-5.29688 20.2617 41.0957 23.4121 45.4346 7.1377c14.4473 -54.1738 31.5674 -111.629 73.5801 -151.297
c3.68164 -3.47461 7.53418 -6.67871 11.5176 -9.6084c0.229492 25.7754 0.864258 51.5508 1.89062 77.2988c2.21875 55.709 5.58105 111.431 9.3252 167.104c-9.30762 7.65527 -18.6465 15.1807 -27.8281 22.6787c-41.0684 33.5254 -79.5664 68.4551 -111.966 110.635
c-30.1904 39.2988 -65.6143 86.4111 -61.7168 138.942c7.4082 99.9453 124.905 156.459 213.257 158.569c5.53613 0.134766 11.0762 0.0263672 16.5986 -0.289062c1.78711 48.1523 2.63281 96.3447 1.95312 144.596c-0.256836 18.2227 46.252 18.29 46.6211 0
c1.03516 -51.0059 0.396484 -101.962 -1.29102 -152.882c57.9277 -17.332 106.313 -60.3037 116.724 -124.113c2.78613 -17.0576 -43.3496 -18.4531 -46.6211 -0.000976562zM261.261 335.754c6.53516 87.375 13.3613 174.763 17.416 262.259
c-35.3477 -4.83398 -68.0039 -30.8613 -85.4258 -61.0693c-24.0645 -41.7383 -11.8945 -82.9004 11.3379 -122.249c16.7422 -28.3535 35.7754 -54.2451 56.6719 -78.9404zM335.272 119.917c-10.3604 14.127 -22.1475 27.2207 -34.7217 39.6426
c-1.52148 -41.2529 -2.24121 -82.5322 -1.7373 -123.924c0.400391 -32.6387 1.43066 -65.2549 3.12305 -97.8486c23.9121 1.04395 46.3525 13.3799 61.0742 40.415c24.7666 45.4922 0.499023 103.208 -27.7383 141.715z" />
    <glyph glyph-name="percent" unicode="%" horiz-adv-x="847" 
d="M763.698 783.785c12.4531 -2.96582 42.8418 -17.3105 30.8789 -35.8662c-48.3994 -75.0879 -100.427 -147.75 -148.821 -222.856c-171.001 -265.396 -310.218 -550.739 -414.915 -848.562c-12.4355 -35.375 -112.907 -26.7158 -98.5957 15.4912
c28.8125 84.9717 60.3213 169.003 94.7061 251.882c61.0371 147.111 130.887 290.532 208.859 429.403c77.3789 137.817 160.46 275.968 261.278 398.069c14.1904 17.1875 47.3105 17.0391 66.6094 12.4395zM237.29 230.511
c-61.0195 -21.5312 -127.913 2.0791 -163.877 54.79c-32.6787 47.9043 -27.0977 113.969 -7.89844 167.899c0.305664 9.2041 4.08594 17.2646 9.95508 24.3086c1.88574 3.71289 5.3291 6.91309 9.83008 9.54102c15.6309 12.6152 37.2021 21.1621 52.1895 26.8018
c34.502 12.9883 73.8193 15.5488 108.658 2.30371c120.652 -45.8701 109.473 -243.888 -8.85742 -285.645zM159.208 307.71c6.76465 -14.3076 18.5547 -32.5732 34.8652 -37.0068c0.103516 -0.0273438 0.162109 -0.0498047 0.248047 -0.0771484
c4.45605 0.477539 8.49316 2.47168 12.3955 4.54199c10.2432 5.43262 18.6816 14.0332 25.1758 23.5518c28.043 41.1221 32.9932 104.635 7.95605 148.093c-8.5957 14.9238 -26.6162 35.249 -45.7666 34.2051c-6.12109 -0.337891 -19.3213 -4.2041 -31.0137 -9.74023
c-0.0224609 -0.360352 0 -0.698242 -0.0400391 -1.06738c-6.12988 -54.6738 -29.042 -109.172 -3.82031 -162.5zM640.699 124.182c74.3633 1.19727 133.762 -62.0039 112.807 -137.187c-21.3105 -76.4297 -114.945 -117.088 -188.863 -108.87
c-39.5156 4.39258 -77.6084 24.5508 -93.0723 62.8643c-16.2656 40.2988 -6.28809 83.001 9.7793 121.611c6.49902 15.6172 29.3398 19.4062 45.4834 19.2754c2.91211 2.30859 5.73438 4.41504 8.33594 6.26953c30.2031 21.5127 68.292 35.4375 105.53 36.0361z
M689.246 -17.2764c20.0322 38.7725 11.4893 109.999 -44.7549 109.157c-22.6738 -0.341797 -45.1592 -10.54 -62.8281 -24.1855c-2.9209 -2.25488 -5.85059 -4.68555 -8.74023 -7.19238c0.324219 -1.56641 0.450195 -3.2002 0.144531 -4.97363
c-4.66699 -27.1162 -12.2998 -54.1289 -10.7246 -81.9023c0.87793 -15.5049 6.96289 -40.0195 22.458 -47.7197c14.7305 -7.32227 38.8848 1.55273 52.2695 7.81348c22.0938 10.3291 40.9287 27.2383 52.1758 49.0029z" />
    <glyph glyph-name="ampersand" unicode="&#x26;" horiz-adv-x="680" 
d="M608.722 107.407c56.4785 -83.5312 -8.87402 -182.343 -85.1094 -223.896c-44.3535 -24.1777 -95.3818 -36.9365 -145.222 -43.4082c-50.6719 -6.58398 -103.352 -7.08398 -150.355 15.7021c-98.3379 47.6748 -70.7402 162.099 -33.0166 241.431
c25.1992 52.9902 58.918 102.168 98.7578 145.612c-58.0127 -4.83789 -115.994 0.927734 -166.581 27.5664c-76.002 40.0195 -92.3525 122.971 -64.4492 199.396c26.4727 72.5 92.9424 131.125 158.935 167.549c72.5947 40.0645 163.948 64.1426 245.094 37.0576
c33.498 -11.1836 63.1934 -32.6738 80.0752 -64.1738c18.4033 -34.3438 17.9355 -75.0967 17.0039 -112.956c-0.458984 -18.7627 -47.6797 -18.542 -47.6074 0.000976562c0.15332 40.1006 0.954102 86.9072 -27.3633 118.821
c-28.1826 31.7656 -70.1602 37.873 -109.914 29.2363c-74.0303 -16.0811 -142.948 -58.1436 -191.298 -116.273c-46.4639 -55.8613 -65.6094 -145.324 -2.74902 -197.778c24.7979 -20.6895 56.3428 -24.4971 87.5586 -22.5029
c44.2725 2.83105 89.3145 12.6289 132.804 21.0762c18.2773 3.55078 46.4102 0.647461 59.9619 -13.9072c12.7236 -13.668 5.61719 -27.5078 -8.30273 -36.6709c-68.0225 -44.7764 -123.618 -106.205 -163.386 -177.116
c-29.1143 -51.9141 -74.5928 -137.889 -38.1914 -196.194c40.8838 -65.4883 147.103 -29.9961 201.218 -4.92285c62.2295 28.835 125.801 96.4746 97.7168 170.91c-11.2334 29.7627 -36.9053 54.4219 -68.0586 62.3652c-15.5537 3.96094 -32.1475 2.83105 -47.5391 -1.20117
c-12.7686 -3.34863 -37.126 -9.68066 -41.4287 -23.3447c-7.9209 -25.1631 -79.377 -19.1094 -69.6426 10.9453c7.99805 24.6855 42.6436 36.9951 64.9219 44.5879c26.707 9.10449 55.4346 13.2314 83.6035 11.6064c51.7881 -2.98438 102.888 -25.627 132.564 -69.5166z" />
    <glyph glyph-name="quotesingle" unicode="'" horiz-adv-x="184" 
d="M133.938 501.229c5.83301 -25.2354 -67.7148 -29.9062 -73.6963 0c-6.9043 34.5195 -25.0645 99.1982 14.2256 120.441c13.7627 7.43945 35.4014 8.64062 48.9795 -0.000976562c12.1025 -7.7002 12.8271 -20.3652 0 -27.917
c-5.59863 -3.29883 0.418945 -33.1338 1.09375 -39.1016c2.03906 -18.0068 5.32031 -35.7705 9.39746 -53.4219z" />
    <glyph glyph-name="quotesingle" unicode="&#x2019;" horiz-adv-x="184" 
d="M133.938 501.229c5.83301 -25.2354 -67.7148 -29.9062 -73.6963 0c-6.9043 34.5195 -25.0645 99.1982 14.2256 120.441c13.7627 7.43945 35.4014 8.64062 48.9795 -0.000976562c12.1025 -7.7002 12.8271 -20.3652 0 -27.917
c-5.59863 -3.29883 0.418945 -33.1338 1.09375 -39.1016c2.03906 -18.0068 5.32031 -35.7705 9.39746 -53.4219z" />
    <glyph glyph-name="quotesingle" unicode="&#x2018;" horiz-adv-x="184" 
d="M133.938 501.229c5.83301 -25.2354 -67.7148 -29.9062 -73.6963 0c-6.9043 34.5195 -25.0645 99.1982 14.2256 120.441c13.7627 7.43945 35.4014 8.64062 48.9795 -0.000976562c12.1025 -7.7002 12.8271 -20.3652 0 -27.917
c-5.59863 -3.29883 0.418945 -33.1338 1.09375 -39.1016c2.03906 -18.0068 5.32031 -35.7705 9.39746 -53.4219z" />
    <glyph glyph-name="parenleft" unicode="(" horiz-adv-x="544" 
d="M480.398 -270.977c19.4023 -11.3779 18.0898 -30.3613 0.00683594 -41.9951c-105.787 -68.0898 -255.081 -22.4043 -327.59 72.667c-66.5283 87.2266 -90.1973 200.912 -98.748 308.197c-9.4873 119.041 -1.68359 241.179 16.4219 359.059
c15.7256 102.38 37.9492 215.809 97.834 302.742c27.0078 39.209 62.9141 73.5752 106.065 94.458c24.4199 11.8184 52.0127 19.7129 79.3721 19.0381c23.7002 -0.584961 40.6543 -9.96387 59.21 -23.3311c22.5527 -16.2471 -19.2305 -28.624 -33.3174 -18.9883
c-29.8613 20.4189 -80.6143 -28.3945 -98.3965 -48.5977c-28.9795 -32.9268 -48.9893 -74.3643 -63.8867 -115.307c-32.2607 -88.6709 -44.291 -185.042 -50.9834 -278.69c-7.09277 -99.2383 -10.3965 -199.755 0.333008 -298.845
c9.58594 -88.5088 29.5283 -181.784 78.9941 -257.309c19.8838 -30.3613 48.2471 -58.8047 82.1641 -73.0088c28.165 -11.7959 50.3799 -14.5732 78.8281 -0.0898438c21.751 11.0713 52.1123 12.6553 73.6924 0z" />
    <glyph glyph-name="parenright" unicode=")" horiz-adv-x="494" 
d="M307.717 715.781c111.093 -170.411 144.982 -383.259 134.676 -583.419c-4.91016 -95.2871 -21.9814 -195.695 -72.0684 -278.457c-51.8877 -85.7363 -136.652 -144.02 -239.9 -132.871c-15.5947 1.68359 -41.2617 12.8672 -37.1484 32.4355
c4.33887 20.6084 33.9258 24.9375 50.9385 25.6309c27.9805 1.14355 59.2773 24.3398 80.6602 46.9238c29.6504 31.3154 50.0068 70.957 65.6191 110.851c29.6006 75.6504 38.0527 157.629 40.1367 238.267c2.20117 85.2959 -2.34473 171.541 -16.1211 255.797
c-13.5918 83.1309 -33.8311 166.055 -65.3848 244.312c-24.5645 60.9199 -77.1943 144.298 -154.604 114.621c-11.0625 -4.23926 -29.1504 -3.56445 -38.6465 4.39746c-8.79883 7.38086 -7.45801 16.5303 2.34473 22.4219c44.2227 26.5762 101.979 21.3193 147.205 0.121094
c44.6055 -20.9102 75.9609 -60.6328 102.294 -101.03z" />
    <glyph glyph-name="asterisk" unicode="*" horiz-adv-x="310" 
d="M259.908 480.472c0 -10.8779 -16.4346 -13.9746 -24.54 -13.9922c-17.5479 -0.0361328 -35.0195 -0.666016 -52.4639 -1.54785c16.166 -13.9072 33.5068 -26.3691 51.9365 -37.4541c21.7695 -13.0967 -17.332 -25.7842 -30.8789 -17.6025
c-13.4072 8.09668 -26.3828 16.877 -38.8184 26.3467c-0.517578 -18.4297 -0.581055 -36.8916 -0.0810547 -55.4023c0.495117 -18.1514 -46.127 -18.3408 -46.6221 -0.000976562c-0.333008 12.2734 -0.382812 24.542 -0.28418 36.8057
c-7.02051 -6.47656 -14.0059 -12.9893 -21.0762 -19.416c-12.9619 -11.7822 -58.625 -1.00293 -41.5312 13.8398c18.3311 15.9229 36.4727 32.0488 54.5156 48.2822c-12.9209 -0.864258 -25.8467 -1.6875 -38.8086 -2.34473
c-22.5342 -1.14746 -31.0312 21.0049 -6.06641 25.5508c14.1953 2.58301 28.5654 4.5498 43.0352 6.0625c-4.57715 5.28809 -9.03711 10.6846 -13.3174 16.2246c-9.64941 12.4893 -17.8857 26.752 -31.4639 35.4385c-21.2607 13.6006 17.3096 25.8291 30.5322 17.4043
c12.2373 -7.79492 21.9365 -18.3623 30.9688 -29.6455c1.54785 13.6055 3.3125 27.1924 5.38281 40.748c2.93848 19.2266 50.4424 17.1289 47.6074 0c-2.96582 -17.9082 -5.36914 -35.8428 -7.33594 -53.8096c13.6279 12.8447 27.166 25.7881 40.5684 38.876
c10.9766 10.7207 52.2744 2.42578 37.2832 -12.4219c-16.3145 -16.1621 -32.751 -32.1982 -49.25 -48.166c12.1064 0.15332 24.1865 0.211914 36.167 0.211914c7.78125 0 24.541 -3.13672 24.541 -13.9873z" />
    <glyph glyph-name="plus" unicode="+" horiz-adv-x="339" 
d="M269.449 197.631c26.752 1.25586 26.1621 -23.6641 0 -24.8838c-20.3926 -0.958984 -40.7578 -2.16992 -61.1182 -3.49805c-0.0986328 -4.30273 -0.21582 -8.60547 -0.265625 -12.9121c-0.319336 -27.5391 -0.125977 -55.1143 0.0449219 -82.6533
c0.15332 -24.5732 6.44922 -54.7275 -15.1807 -71.0195c-15.0498 -11.333 -39.2178 -14.249 -55.9424 -4.10938c-14.4336 8.74512 -19.5684 15.4326 -23.2588 31.6982c-3.2627 14.3799 -4.80176 28.7637 -6.25098 43.4268
c-2.57422 26.0947 -3.83398 52.0811 -4.18457 78.3018c-0.0400391 2.91211 -0.0488281 5.82422 -0.0761719 8.73145c-8.61914 -0.833008 -17.2422 -1.62109 -25.8613 -2.52148c-7.15625 -0.751953 -23.8896 -0.617188 -26.8604 8.69043
c-2.89355 9.07812 7.52051 14.501 15.2529 15.3115c12.4619 1.30566 24.9375 2.47168 37.4082 3.64648c0.202148 43.9121 2.26367 87.8379 9.00098 131.237c6.21094 39.9883 105.634 40.5957 103.726 0c-1.92578 -40.9824 -5.09863 -81.8701 -6.76855 -122.849
c20.1045 1.28711 40.2129 2.45703 60.335 3.40234z" />
    <glyph glyph-name="comma" unicode="," horiz-adv-x="292" 
d="M141.566 111.215c14.6768 35.5186 116.067 23.998 98.5957 -15.4902c-28.1152 -63.54 -61.9775 -122.858 -101.736 -179.832c-11.9766 -17.165 -35.3262 -20.959 -55.0166 -17.8086c-12.3496 1.97559 -41.5674 13.5557 -31.2383 31.3604
c33.8262 58.3096 63.6562 119.478 89.3955 181.771z" />
    <glyph glyph-name="hyphen" unicode="-" horiz-adv-x="340" 
d="M257.351 189.179c11.9668 -1.04004 32.292 -9.56738 32.2969 -24.1768c0 -14.6904 -20.4189 -23.1201 -32.292 -24.1777c-57.4551 -5.12207 -115.567 0.381836 -172.612 8.11816c-14.7754 2.00293 -41.5859 13.5381 -33.1289 33.2598
c8.46582 19.7354 40.627 21.3242 58.3457 18.8848c49.043 -6.76465 98.1582 -7.63281 147.391 -11.9082z" />
    <glyph glyph-name="period" unicode="." horiz-adv-x="189" 
d="M134.312 34.5156c5.30176 -13.1729 3.94824 -29.7783 4.66406 -43.834c0.414062 -8.22266 -6.88574 -14.001 -13.0293 -17.9258c-9.08691 -5.80176 -20.9014 -7.15625 -31.4512 -7.42676c-10.0586 -0.256836 -22.6514 2.24512 -31.4502 7.42578
c-5.85059 3.44336 -13.4248 10.1807 -13.0283 17.9258c0.719727 14.0371 -0.625977 30.6582 4.68945 43.8311c2.75391 6.83203 12.5693 12.084 18.9688 14.0645c6.74219 2.08789 13.79 3.0332 20.833 3.21289c12.1875 0.310547 34.4795 -4.0459 39.8037 -17.2734z" />
    <glyph glyph-name="slash" unicode="/" horiz-adv-x="702" 
d="M607.452 726.286c16.3057 -2.61035 55.7529 -18.21 41.7246 -41.8828c-180.416 -304.516 -353.203 -612.632 -502.902 -933.633c-15.2656 -32.7373 -111.043 -23.5068 -94.3232 14.8203c140.302 321.627 296.698 638.601 482.016 936.914
c14.5732 23.457 48.4219 27.791 73.4854 23.7812z" />
    <glyph glyph-name="zero" unicode="0" horiz-adv-x="511" 
d="M338.318 599.962c106.948 -55.9199 125.594 -200.583 122.002 -307.923c-2.09277 -62.3691 -13.3936 -124.338 -33.1689 -183.557c-18.3262 -54.8896 -44.7266 -112.093 -87.9053 -152.107c-47.6611 -44.1641 -119.433 -66.4736 -182.545 -45.1768
c-63.9492 21.5801 -86.2637 85.2725 -96.8896 146.058c-22.8447 130.661 -3.00195 269.793 30.7705 396.656c0.21582 0.805664 0.571289 1.53516 0.873047 2.29102c8.09668 48.9756 28.7412 95.0752 69.7773 126.323c50.2852 38.291 120.459 47.0449 177.086 17.4355z
M363.332 300.19c9.27539 84.0576 16.6299 206.775 -61.4688 262.938c-35.3613 25.4287 -72.5449 10.3877 -100.089 -19.6582c-17.3096 -18.8799 -28.3545 -42.2646 -35.3486 -67c17.6787 -3.65918 44.6465 -13.4521 40.5332 -31.5352
c-26.4639 -116.391 -45.0605 -236.075 -33.751 -355.651c2.50195 -26.4092 6.5791 -52.625 15.7021 -77.6396c3.89258 -10.6709 12.0518 -37.5039 23.9473 -43.1611c5.76562 -0.256836 16.9814 8.02441 21.0811 10.9316c15.6123 11.0713 29.0557 26.9492 39.79 42.6514
c55.3711 80.9971 78.9951 182 89.6035 278.124z" />
    <glyph glyph-name="one" unicode="1" horiz-adv-x="396" 
d="M305.971 -54.417c12.3184 -0.5625 32.9922 -3.21777 38.627 -16.7598c5.16211 -12.4219 -7.38574 -22.9131 -18.4033 -25.7803c-26.4365 -6.88184 -53.3818 -9.0918 -80.3496 -13.0479c-14.0332 -2.06152 -28.0303 -4.33887 -41.9912 -6.83691
c-6.50781 -1.16602 -15.2305 -1.65234 -22.6113 -3.15527c-12.1963 -5.74707 -29.6768 -6.42188 -38.1514 -4.73828c-0.305664 0.0585938 -0.607422 0.12207 -0.913086 0.180664c-10.1172 2.01172 -38.5205 12.165 -28.5605 28.6777
c10.1396 16.8145 35.0098 22.6162 58.0615 25.9873c-0.904297 2.76758 -1.39062 5.71973 -1.36816 8.87012c0.886719 136.391 13.1152 274.686 33.0938 409.523c4.70312 31.752 10.0771 63.4951 13.0342 95.4717c2.70898 29.3076 5.26562 64.5654 -5.92285 92.5547
c-1.97559 4.94141 -4.4375 9.52344 -7.73633 13.7139c-1.70605 2.16504 -3.79883 3.6416 -5.26172 4.7041c-2.93848 -2.6377 -8.9375 -6.51758 -10 -7.39941c-5.55371 -4.59961 -10.5898 -9.98242 -15.4824 -15.2842c-19.7393 -21.3916 -33.9609 -46.3926 -44.7217 -73.3242
c-10.9502 -27.4043 -89.0312 -18.6553 -75.8125 11.9131c26.7246 61.7979 83.252 137.642 159.128 129.293c76.6318 -8.42969 94.7607 -96.4121 99.2705 -160.253c5.72949 -81.123 -0.783203 -164.137 -2.63281 -245.359
c-1.89062 -82.915 -2.12891 -166.019 -4.96387 -248.893c1.21973 -0.0361328 2.44824 0 3.66797 -0.0585938z" />
    <glyph glyph-name="two" unicode="2" horiz-adv-x="390" 
d="M181.644 596.542c58.1211 25.3965 133.091 3.54883 152.561 -61.7773c10.5986 -35.5322 3.60449 -74.7959 -3.95215 -110.116c-8.49707 -39.7178 -19.8652 -78.3154 -32.2061 -116.984c-24.9961 -78.3418 -58.6787 -153.781 -85.9932 -231.322
c-7.08887 -20.127 -13.8848 -40.3613 -20.1582 -60.7539c-5.32422 -17.3096 -3.27148 -31.5049 -5.24707 -48.6074c3.7627 0.220703 7.38574 0.495117 8.57422 0.634766c18.3809 2.16895 35.6045 7.14648 52.9453 13.4648c17.3408 6.31934 48.8223 5.81934 62.2021 -9.29395
c14.3301 -16.1934 -1.25977 -28.8486 -16.3096 -35.4551c-40.6904 -17.8633 -86.9072 -28.7012 -131.459 -29.7314c-41.6572 -0.962891 -95.7773 14.6494 -109.671 59.2637c-11.1484 35.793 12.2549 81.4336 24.2354 114.68c13.0654 36.252 27.3184 72.0674 41.9814 107.698
c30.1406 73.2568 63.7422 145.595 98.5635 216.731c17.2646 35.2715 36.1631 72.2256 44.5166 110.886c2.9209 13.5156 9.33398 36.8779 1.13379 49.2139c-8.43848 12.6963 -26.5801 16.459 -40.4287 13.4883c-32.0625 -6.87207 -60.2637 -36.918 -78.2617 -62.8906
c-19.5322 -28.1914 -31.6611 -60.3213 -35.0723 -94.4404c-1.8584 -18.6055 -48.2148 -17.5928 -46.6221 0c6.47656 71.4834 51.2266 145.843 118.668 175.312zM177.448 -33.3154c-0.670898 0.198242 -1.13477 0.297852 -1.15723 0.189453
s0.427734 -0.166992 1.15723 -0.189453zM186.549 -36.2305c0.386719 -3.02441 2.55664 -1.00781 0 0z" />
    <glyph glyph-name="three" unicode="3" horiz-adv-x="462" 
d="M355.276 260.518c42.1885 -39.5293 64.7256 -101.063 53.6807 -158.127c-12.3857 -63.9531 -50.749 -116.012 -104.221 -152.332c-57.4551 -39.0244 -135.563 -47.0898 -192.429 -3.0293c-51.8066 40.1406 -61.8877 109.067 -62.3066 170.641
c-0.234375 34.4746 85.3672 34.4248 87.9727 0c2.41211 -31.8779 2.05664 -64.7188 13.1865 -95.1387c7.51172 -20.5361 22.0664 -47.4902 44.502 -54.6143c1.2334 -0.391602 1.88574 -0.634766 2.26855 -0.796875c-0.0986328 0.139648 -0.03125 0.319336 0.657227 0.481445
c4.20801 0.981445 7.98828 3.29492 11.6787 5.45996c11.5078 6.76465 21.2969 16.4863 30.1807 26.3428c16.8682 18.7178 30.0732 41.6211 38.998 65.1416c17.4893 46.1045 13.124 104.1 -17.1152 144.276c-31.3242 41.6123 -69.7461 36.252 -114.329 31.126
c-22.9482 -2.6377 -53.1748 -1.31934 -70.6504 16.3857c-14.7842 14.9873 -7.12891 33.8359 9.78418 43.2148c42.373 23.502 81.2451 52.6797 116.643 85.7324c33.0527 30.8604 69.3096 71.1855 70.8984 118.986c0.71582 21.6162 -6.1748 42.5889 -24.9336 55.2041
c-22.3145 15.0049 -48.6973 3.37988 -68.7432 -9.88379c-37.2832 -24.668 -69.958 -61.2402 -81.3447 -105.085c-4.34766 -16.7373 -51.5723 -13.3623 -46.3828 7.28613c13.9609 55.5957 63.7246 106.29 115.022 130.026c50.1953 23.2275 115.238 17.165 146.684 -32.4854
c53.4629 -84.4131 4.46973 -173.872 -62.126 -239.055c37.8457 -7.30859 73.4365 -22.5967 102.425 -49.7578z" />
    <glyph glyph-name="four" unicode="4" horiz-adv-x="426" 
d="M376.068 555.938c-5.78809 -103.595 -15.9463 -206.902 -18.3945 -310.687c-2.43066 -103.109 4.39648 -205.705 13.7354 -308.314c3.09668 -34.0381 -84.0801 -36.4502 -92.6855 -7.15137c-18.6416 63.4854 -28.2822 128.609 -32.8594 194.26
c-31.4189 -7.9209 -63.8594 -11.1699 -95.5801 -7.79004c-54.8262 5.8418 -101.309 36.6621 -100.265 96.1328c1.0752 61.2266 22.7139 123.582 36.5439 182.77c14.4785 61.9551 29.1006 123.879 35.8564 187.257c2.96094 27.8047 72.207 26.3105 69.7588 0
c-9.5459 -102.601 -40.8613 -201.349 -53.332 -303.517c-3.64062 -29.8125 -17.9795 -99.5312 22.5527 -111.715c24.623 -7.39941 54.1602 2.11035 81.6953 13.1865c-0.612305 20.1807 -0.864258 40.3789 -0.84668 60.5684
c0.0859375 105.184 6.89941 210.466 18.2812 315.001c4.95508 45.4873 118.023 44.4922 115.539 -0.000976562z" />
    <glyph glyph-name="five" unicode="5" horiz-adv-x="544" 
d="M411.328 389.779c73.8506 -55.4883 88.3965 -151.907 81.1367 -238.49c-7.36328 -88.0273 -42.5674 -174.979 -112.498 -231.638c-64.8271 -52.5264 -178.949 -79.0938 -238.258 -2.70508c-57.333 73.8457 -36.873 192.648 -18.5469 276.423
c6.94434 31.752 87.7754 32.9668 84.5264 0c-5.7334 -58.1836 -15.9766 -116.417 -11.165 -175.051c2.58301 -31.5039 9.9502 -99.5488 53.4307 -101.232c35.9824 -1.39551 72.6621 37.0625 92.0908 63.1973c26.6934 35.9062 42.292 79.1973 50.3613 122.857
c14.8926 80.5967 18.2861 189.367 -49.3584 248.523c-28.1562 24.627 -63.54 27.6787 -98.4648 17.5078c-44.5469 -12.9795 -82.0146 -48.2871 -130.94 -38.7139c-24.9785 4.8877 -45.3262 20.748 -38.1436 47.8779c6.06641 22.9121 16.04 45.3477 23.9922 67.6748
c12.0166 33.7363 22.917 68.3457 36.2617 101.79c-18.6465 -2.92969 -37.2881 -5.9043 -55.9023 -9.05469c-7.66895 -1.2959 -26.1533 -0.314453 -29.2812 9.47852c-3.27637 10.2568 8.32129 15.2568 16.625 16.6885c27.1924 4.68945 54.4297 9.06445 81.6895 13.2861
c1.7959 3.8252 3.55566 7.66895 5.45508 11.4404c7.94336 15.7832 58.8135 19.208 61.2217 -1.58887c40.042 5.63477 80.1426 10.8418 120.324 15.4688c8.02051 0.922852 26.8691 0.629883 30.1904 -9.77148c3.26758 -10.2393 -8.46094 -16.2344 -17.1426 -17.2061
c-45.7666 -5.12598 -91.4434 -10.9141 -137.034 -17.3408c-5.01855 -28.3857 -12.7598 -56.2891 -19.6318 -84.2695c-4.45605 -18.1514 -8.91602 -36.2979 -13.3721 -54.4492c-0.710938 -2.90723 -1.99805 -6.83203 -3.46484 -11.252
c1.93555 0.733398 3.86621 1.48047 5.81543 2.17383c27.2598 9.68945 55.7266 15.5449 84.584 17.3184c50.915 3.12305 104.197 -7.91211 145.499 -38.9434z" />
    <glyph glyph-name="six" unicode="6" horiz-adv-x="440" 
d="M326.022 198.53c40.2939 -22.3682 63.8994 -65.4365 63.7422 -111.262c-0.310547 -92.8789 -81.4111 -166.181 -172.796 -162.652c-50.1416 1.93555 -95.0303 23.7861 -124.077 65.1553c-27.1338 38.6465 -40.5186 89.6475 -42.5215 136.337
c-4.24902 98.9639 28.7939 197.797 67.9941 287.346c20.1758 46.0859 44.3984 91.3574 72.8418 132.911c27.5889 40.3076 56.2168 69.9531 102.73 86.9834c14.1455 5.17578 70.5205 -2.20117 47.7246 -27.2021c-49.7402 -54.5605 -80.3086 -131.562 -108.631 -198.684
c-28.3984 -67.2979 -52.0225 -138.236 -61.0322 -210.976c49.79 19.2852 104.792 29.3711 154.024 2.04297zM305.36 68.1992c5.52246 32.4092 -1.35352 65.8467 -24.793 89.709c-24.4971 24.9248 -54.9756 16.5088 -85.7998 8.55664
c-7.04785 -1.81836 -16.8955 -3.04688 -25.4424 -1.27832c-1.35938 -27.8584 -0.0585938 -55.7041 3.28516 -83.5537c3.63672 -30.3066 11.7422 -64.3223 31.1934 -88.7646c42.4229 -53.3057 95.1299 37.6025 101.557 75.3311z" />
    <glyph glyph-name="seven" unicode="7" horiz-adv-x="410" 
d="M327.567 256.53c9.85156 -0.697266 29.7188 -2.98633 31.8516 -16.0244c2.0166 -12.3994 -12.8936 -19.0381 -23.2227 -20.2754c-11.3867 -1.36328 -22.877 -2.08789 -34.3984 -2.5293c-1.125 -6.12109 -2.23633 -12.2422 -3.31641 -18.3633
c-14.9375 -84.6475 -28.3984 -168.795 -36.5449 -254.419c-4.81152 -50.5234 -130.761 -48.1025 -126.863 0c7.40332 91.3574 27.6963 180.249 50.4062 268.632c-9.56836 -0.238281 -19.123 -0.18457 -28.6416 0.350586
c-9.85156 -0.724609 -20.0273 1.22461 -25.9951 8.09277c-11.3818 13.0918 5.99902 21.2559 17.0527 23.8936c15.3018 3.6543 31.418 5.19336 47.5801 6.09375c10.0098 38.0889 20.1807 76.1416 29.6904 114.303c8.74023 35.0781 16.625 70.4893 23.209 106.03
c5.7832 31.2295 14.4785 69.2012 3.19141 100.125c-1.94922 5.33789 -4.40625 11.4766 -8.24512 15.7969c-3.91992 4.42383 1.2373 3.69043 -7.4082 2.2998c-12.3945 -1.99414 -24.5322 -3.83008 -36.585 -7.4707c-31.0449 -9.375 -57.9854 -25.7305 -84.4443 -44.1338
c-13.1016 -9.10938 -36.1084 -8.14648 -49.9971 -1.69727c-10.6982 4.96875 -21.5361 17.3721 -9.80762 28.0029c52.2607 47.3691 140.774 83.5088 212.046 69.6963c86.3174 -16.7246 77.8291 -120.652 72.1133 -188.067
c-5.40527 -63.7334 -17.9219 -126.787 -30.002 -189.706c6.13867 -0.0400391 12.2598 -0.202148 18.3311 -0.629883z" />
    <glyph glyph-name="eight" unicode="8" horiz-adv-x="434" 
d="M311.444 198.944c3.92871 -4.14062 7.79785 -8.32617 11.5293 -12.6201c37.8994 -43.4854 64.71 -98.667 60.8076 -157.539c-3.58691 -54.1465 -29.8027 -112.722 -79.417 -138.771c-45.0781 -23.6641 -100.867 -20.9053 -141.553 10.4277
c-44.002 33.8945 -61.3027 90.7324 -61.9375 144.402c-0.37793 32.0127 4.7168 63.998 13.1016 94.8359c7.63281 28.0791 15.4365 58.2422 29.8613 83.6934c-42.9355 39.0654 -75.9072 85.2012 -89.0938 142.979c-13.4707 59.0254 2.45703 115.342 38.8086 162.675
c63.3418 82.4785 236.448 135.815 274.636 2.22363c15.6221 -54.6416 1.71973 -113.235 -11.4531 -166.878c-13.457 -54.8037 -27.4766 -111.272 -45.29 -165.429zM183.136 481.74c-14.5371 -54.8809 -4.16602 -117.551 23.6748 -166.383
c16.333 -28.6416 39.2002 -52.2295 62.8418 -75.1738c5.84668 13.9746 11.6299 27.9756 16.9268 42.1611c14.2891 38.2734 25.0498 78.333 33.5918 118.263c6.55273 30.6172 12.0303 62.0723 10.0723 93.5137c-1.93945 31.1621 -16.3057 81.0693 -52.959 87.7793
c-49.0342 8.97461 -84.2422 -62.7695 -94.1484 -100.16zM279.681 -83.1836c57.4502 39.6816 44.0869 110.86 11.9844 162.5c-26.1895 42.1299 -63.5488 73.9082 -101.395 104.998c-12.3223 -22.4629 -22.9932 -44.9971 -28.9521 -71.6133
c-7.57422 -33.8486 -10.5127 -69.6416 -5.52637 -104.085c8.2627 -57.0771 59.084 -136.562 123.889 -91.7998z" />
    <glyph glyph-name="nine" unicode="9" horiz-adv-x="554" 
d="M482.678 593.761c14.7031 -22.5078 15.5488 -56.2197 17.75 -82.0625c2.22363 -26.0312 3.2002 -52.1572 3.26758 -78.2783c0.157227 -59.458 -4.46973 -118.663 -10.9277 -177.729c-12.8848 -117.875 -25.0771 -237.749 -50.2666 -353.721
c-6.0127 -27.6836 -37.3193 -35.7354 -62.6934 -35.7354c-17.498 0 -66.96 8.60938 -62.6934 35.7344c23.4072 148.831 56.9775 296.06 82.127 444.62c10.207 60.2812 17.8711 121.656 17.5332 182.928c-9.02344 -16.3916 -17.4355 -33.1201 -25.6133 -49.9521
c-24.542 -50.5234 -46.9775 -102.37 -77.0957 -149.941c-28.7051 -45.3389 -64.3232 -93.666 -119.969 -104.976c-68.7783 -13.9785 -128.537 22.6025 -141.805 91.7637c-10.2744 53.5576 15.6045 119.779 44.9893 163.903c33.0078 49.5654 78.7881 88.1084 136.603 105.004
c34.3086 10.0225 72.4014 13.6182 107.15 3.23535c7.24609 -2.16504 13.4482 -4.98242 19.0293 -8.35742c13.916 19.5908 30.2305 34.2852 55.3936 38.1602c24.6719 3.80273 52.8906 -2.66016 67.2207 -24.5957zM287.189 445.811
c15.4189 31.252 30.3809 63.0625 47.5557 93.5225c-38.5117 8.83496 -84.9355 -29.8887 -106.174 -55.6865c-34.7578 -42.2295 -56.415 -101.313 -55.8799 -155.793c0.121094 -12.4482 0.27832 -25.5137 3.74414 -37.584
c0.512695 -1.78223 1.5791 -3.78906 2.65918 -5.82812c4.375 3.31738 8.72266 6.71973 9.81152 7.79102c8.5332 8.41211 16.373 17.6064 23.835 26.9629c30.6172 38.3906 52.8232 82.7842 74.4482 126.615z" />
    <glyph glyph-name="colon" unicode=":" horiz-adv-x="209" 
d="M135.515 313.323c0.324219 -19.1816 -29.1807 -24.0234 -42.7549 -24.3701c-13.875 -0.355469 -43.0703 5.71094 -42.7549 24.3701c0.24707 14.501 0.490234 29.0068 0.737305 43.5078c0.319336 18.9023 28.1377 23.5967 42.0176 23.9521
c14.1006 0.360352 41.707 -5.57617 42.0176 -23.9521c0.24707 -14.501 0.490234 -29.0068 0.737305 -43.5078zM158.072 52.2441c5.62988 -19.2178 -17.6826 -26.6543 -32.4766 -27.7881c-14.8115 -1.13379 -42.3594 2.45801 -44.2539 21.8691
c-1.04883 10.7344 -5.21191 26.9541 0.693359 36.6621c11.3096 18.6006 46.2344 18.1416 61.0508 4.54492c9.34277 -8.57324 11.5391 -23.542 14.9863 -35.2881z" />
    <glyph glyph-name="semicolon" unicode=";" horiz-adv-x="279" 
d="M223.088 368.591c3.56934 -13.0244 6.10352 -25.9248 6.12109 -39.4541c0.0136719 -9.73926 -7.77734 -16.1709 -15.1895 -20.9053c-10.5947 -6.76855 -24.3711 -8.34375 -36.6709 -8.65918c-11.7285 -0.296875 -26.4141 2.61523 -36.6709 8.65918
c-7.12402 4.19922 -15.3193 11.7246 -15.1885 20.9062c0.117188 8.28516 -0.643555 16.4219 -2.19629 24.5273c-2.13281 4.97754 -2.09277 9.95117 0.251953 14.9248c1.73242 2.33984 3.46973 4.68457 5.20215 7.0293c7.45703 8.37598 20.2568 11.5312 30.8467 13.5205
c12.3447 2.32227 27.876 1.11133 39.7715 -2.96582c6.93945 -2.37598 21.3955 -9.09082 23.7227 -17.583zM148.473 75.0684c7.12891 22.0488 74.8799 20.2705 70.9287 -5.46875c-11.6025 -75.5918 -34.5195 -146.368 -69.9209 -214.184
c-18.623 -35.6807 -117.173 -17.1475 -96.6953 15.1943c40.2178 63.5127 72.5498 132.935 95.6875 204.458z" />
    <glyph glyph-name="less" unicode="&#x3c;" horiz-adv-x="403" 
d="M351.545 163.282c9.53223 -22.291 -20.4199 -35.2939 -37.5938 -37.7373c-48.291 -6.88184 -99.0127 -9.90137 -147.012 0.679688c-36.7344 8.10156 -89.7695 24.2988 -111.692 58.0039c-15.2393 23.4258 5.72949 39.3223 24.4609 50.7939
c19.7891 12.1201 40.2979 23.1875 60.6006 34.4209c41.2344 22.8086 83.5312 49.9473 129.28 62.2881c16.1885 4.36523 36.2705 5.43652 51.2168 -3.76758c11.0986 -6.84082 16.7695 -18.4844 6.60742 -29.1963c-23.3809 -24.6494 -56.9326 -39.7402 -85.7725 -57.1445
c-15.7568 -9.51465 -31.4502 -19.1455 -47.0674 -28.8936c-7.21484 -4.50098 -14.3975 -9.05078 -21.5986 -13.5693c-0.224609 -0.143555 -0.521484 -0.341797 -0.845703 -0.5625c3.86621 -2.37598 7.95703 -4.58105 11.7822 -6.30957
c7.39453 -3.34375 15.2256 -5.66113 23.1064 -7.30859c25.6621 -5.36035 52.459 -2.6377 78.3105 -0.265625c19.6943 1.80469 56.4551 1.4043 66.2168 -21.4316z" />
    <glyph glyph-name="equal" unicode="=" horiz-adv-x="409" 
d="M112.299 173.553c-17.3096 -1.99805 -52.6895 -1.11328 -60.7676 19.666c-8.18164 21.0498 18.3633 31.7207 34.5068 34.6367c66.668 12.0527 134.497 18.9658 201.902 25.4688c18.0068 1.7373 54.4346 1.38672 62.8867 -20.3516
c8.10547 -20.8467 -18.6143 -34.2539 -35.708 -35.8467c-67.8242 -6.33203 -135.176 -15.7695 -202.82 -23.5732zM357.315 128.963c8.24512 -21.2109 -18.8486 -34.3408 -36.0498 -36.1953c-71.4785 -7.71387 -146.382 -16.3779 -218.338 -13.5469
c-15.3877 0.603516 -43.1699 4.73535 -47.1709 23.7373c-3.88379 18.457 19.8389 27.9941 34.4023 30.0371c66.9873 9.39258 136.185 11.2197 203.662 16.5127c18.2725 1.43555 54.8711 1.63379 63.4941 -20.5449z" />
    <glyph glyph-name="greater" unicode="&#x3e;" horiz-adv-x="402" 
d="M348.11 245.639c21.7246 -45.3711 -51.0117 -69.3545 -81.4541 -78.8506c-45.1768 -14.0781 -91.4072 -24.2139 -136.004 -40.2588c-21.5986 -7.76758 -56.5283 -6.3457 -73.6533 11.0088c-17.8223 18.0605 2.00781 35.1631 19.3125 41.9814
c37.2109 14.6631 76.1904 22.9082 115.04 31.9727c15.4824 3.61426 31.0947 6.89551 46.3115 11.5225c3.09668 0.94043 18.543 4.41016 19.6992 8.38379c0.148438 0.503906 -10.293 9.90137 -10.0547 9.69434c-48.1562 42.0762 -118.946 36.9229 -173.008 66.2217
c-12.3096 6.66992 -16.5811 19.7041 -6.87793 30.3838c11.0713 12.1875 34.8525 14.208 49.6729 11.5215c42.3145 -7.67383 87.3203 -20.9463 127.894 -35.3301c34.2139 -12.1289 86.2451 -33.0068 103.122 -68.251z" />
    <glyph glyph-name="question" unicode="?" horiz-adv-x="536" 
d="M483.073 534.304c12.9258 -106.826 -22.2686 -220.061 -54.9834 -320.446c-33.3311 -102.254 -66.5361 -203.927 -74.7002 -311.883c-3.69531 -48.8271 -125.657 -47.0625 -122.926 0c5.87305 101.151 40.5273 197.698 75.4922 291.914
c30.5996 82.46 64.3359 164.52 83.7246 250.585c9.97363 44.2725 18.916 94.6211 6.58887 139.371c-9.45605 34.3262 -34.1826 71.1055 -72.2129 75.4619c-72.4326 8.29492 -147.251 -53.9219 -179.228 -113.771c-18.5107 -34.6504 -28.4434 -75.4443 -21.9043 -114.672
c4.64453 -27.877 31.999 -81.1777 67.792 -76.0381c8.89355 1.27832 27.2695 0.396484 31.4014 -10.1621c4.22168 -10.7832 -9.46484 -16.5215 -17.8271 -17.8984c-53.2822 -8.7627 -109.071 9.28906 -136.921 58.2061c-26.6123 46.7393 -19.7217 106.3 1.02637 153.781
c36.4814 83.4912 120.908 143.309 210.16 156.941c51.0059 7.79102 102.425 -1.15137 142.817 -34.501c37.6338 -31.0723 55.9785 -79.6426 61.6992 -126.89zM289.39 -159.095c12.3721 0.31543 43.3887 -4.72168 47.1553 -20.4736
c4.96875 -20.7344 1.14746 -43.6016 0 -64.8672c-1.25977 -23.376 -33.9971 -29.1006 -51.8604 -29.5596c-11.7285 -0.296875 -26.4141 2.61914 -36.6709 8.65918c-6.35449 3.74414 -16.1523 12.1201 -15.1895 20.9053c2.25 20.5186 1.50781 45.6992 9.40234 64.8672
c6.75586 16.4092 31.9326 20.082 47.1631 20.4688z" />
    <glyph glyph-name="at" unicode="@" horiz-adv-x="910" 
d="M775.019 609.167c132.084 -151.851 99.5332 -409.246 -24.1436 -556.808c-35.1768 -41.9727 -89.2695 -65.8438 -144.101 -59.4668c-53.6289 6.2334 -97.9375 39.3984 -115.121 90.9668c-12.1152 36.3691 -14.7207 74.6826 -12.6328 112.749
c-1.08887 -2.20117 -2.15527 -4.41504 -3.27637 -6.60254c-27.9619 -54.6016 -66.9688 -114.95 -135.774 -112.412c-43.71 1.61621 -74.3369 29.5605 -79.9854 72.0508c-4.49121 33.7998 5.38281 69.3594 16.5352 101.003c11.9443 33.8896 27.7686 66.3799 47 96.7324
c18.5156 29.2266 40.0596 60.3164 71.2578 76.9775c28.1289 15.0137 69.2646 19.9873 96.1289 -0.557617c5.64355 -4.31641 10.6797 -9.87012 15.1846 -16.0986c6.75098 27.3369 64.8721 28.665 76.3984 4.55078c45.9961 -96.2412 -15.8877 -208.369 17.1328 -308.147
c6.03516 -18.2412 14.9873 -36.4014 27.6299 -50.9697c12.0527 -13.8975 22.4541 -14.0645 38.8457 -6.30566c45.6943 21.625 76.7354 75.8936 97.8428 119.311c75.6465 155.581 67.334 373.23 -84.9307 480.232c-147.075 103.352 -341.523 29.9238 -441.847 -103.047
c-103.824 -137.602 -151.666 -345.021 -69.1025 -503.704c33.6377 -64.6465 89.918 -123.235 159.142 -149.213c84.5488 -31.7295 170.033 -5.19434 249.622 28.1104c13.9971 5.85938 36.6797 4.0459 48.8047 -5.55371c10.7832 -8.54199 9.91504 -21.8643 -2.95703 -28.3184
c-108.077 -54.2051 -239.535 -75.7178 -353.27 -25.9414c-92.249 40.3701 -164.925 121.597 -197.149 216.893c-67.3691 199.224 25.6719 427.094 179.111 560.235c79.6738 69.1338 182.958 107.398 288.768 96.4795c88.3652 -9.11816 176.667 -56.2129 234.887 -123.146z
M451.697 239.81c16.1885 35.5371 28.9863 72.4346 43.2529 108.736c-3.7041 1.49902 -6.64746 3.69531 -8.05566 6.62109c-6.27832 13.0518 -12.71 25.6445 -23.0029 35.9287c-0.535156 0.535156 -0.921875 0.926758 -1.27734 1.2959
c-3.45605 -2.81738 -6.32715 -7.5791 -8.8291 -10.752c-18.3486 -23.2461 -32.8896 -50.9746 -45.3926 -77.7393c-22.5166 -48.1973 -52.0498 -119.474 -30.0059 -172.005c0.189453 -0.450195 0.427734 -0.90918 0.670898 -1.36816
c12.2822 9.70312 23.1104 22.7773 31.999 35.4688c16.1211 23.0068 29.0156 48.2998 40.6406 73.8135z" />
    <glyph glyph-name="A" unicode="A" horiz-adv-x="873" 
d="M144.169 -25.7031c-62.9951 -20.5898 -142.904 -10.625 -185.619 44.0664c-22.125 28.3271 42.7695 34.876 58.958 19.6455c55.9922 -52.6748 132.971 -34.7891 182.374 16.8018c59.7588 62.4014 82.2119 152.589 101.637 234.252
c5.74316 24.1543 10.8965 48.4307 15.7793 72.7568c-43.2646 3.17285 -86.6455 5.59375 -129.631 0.462891c-13.8486 -1.65137 -42.207 -0.850586 -48.6611 15.748c-6.36816 16.3916 14.501 26.1084 27.6289 27.7373c53.332 6.625 106.223 3.91992 159.379 0.755859
c7.58398 40.0693 14.7803 80.2197 22.7324 120.221c13.9785 70.3174 30.0684 148.209 67.1943 210.552c16.8594 28.3086 41.5635 46.1133 75.6875 44.4297c38.4941 -1.89941 58.2383 -26.5947 74.877 -58.0537c36.3379 -68.7197 50.7441 -142.296 59.543 -218.896
c8.81641 -76.7754 12.1602 -154.023 17.8174 -231.061c5.44531 -74.1924 8.84766 -151.729 25.4277 -224.44c5.53125 -24.249 15.1133 -67.7607 44.3359 -75.2637c29.1279 -7.47559 62.4951 32.6748 77.1758 52.9678c42.918 59.3184 68.9316 131.152 78.5176 203.374
c2.31738 17.458 45.6895 16.1934 43.6689 0c-10.2119 -81.8252 -39.9199 -165.784 -93.2607 -229.729c-51.6309 -61.8926 -137.597 -84.7109 -203.472 -28.584c-60.835 51.833 -68.6797 146.449 -78.6982 220.579c-7.27734 53.8496 -10.918 108.149 -14.6982 162.409
c-46.0771 -1.3457 -92.4062 -0.0537109 -138.155 2.19238c-6.52148 0.319336 -13.0479 0.71582 -19.583 1.13867c-0.526367 -2.58301 -1.0166 -5.17969 -1.55176 -7.7627c-16.5801 -79.6836 -34.2002 -162.418 -70.4521 -235.827
c-30.0771 -60.9062 -82.6846 -118.812 -148.951 -140.473zM478.207 740.134c-0.03125 0.148438 -0.760742 -0.59375 -1.89941 -1.87207c1.36816 -0.134766 2.21875 0.301758 1.89941 1.87207zM458.891 716.979c-20.5088 -35.123 -33.21 -74.8398 -43.8184 -113.937
c-17.7373 -65.4121 -28.7051 -132.543 -41.127 -199.233c48.6025 -2.36719 96.9883 -1.84473 145.464 -1.37207c-0.873047 11.2783 -1.78711 22.543 -2.80469 33.7988c-7.34082 81.4072 -21.3643 161.635 -35.8828 241.998
c-3.14551 17.4219 -4.64844 36.252 -10.3281 53.1025c-5.10352 -6.13477 -10.9316 -13.376 -11.5029 -14.3574z" />
    <glyph glyph-name="A" unicode="&#xc5;" horiz-adv-x="873" 
d="M144.169 -25.7031c-62.9951 -20.5898 -142.904 -10.625 -185.619 44.0664c-22.125 28.3271 42.7695 34.876 58.958 19.6455c55.9922 -52.6748 132.971 -34.7891 182.374 16.8018c59.7588 62.4014 82.2119 152.589 101.637 234.252
c5.74316 24.1543 10.8965 48.4307 15.7793 72.7568c-43.2646 3.17285 -86.6455 5.59375 -129.631 0.462891c-13.8486 -1.65137 -42.207 -0.850586 -48.6611 15.748c-6.36816 16.3916 14.501 26.1084 27.6289 27.7373c53.332 6.625 106.223 3.91992 159.379 0.755859
c7.58398 40.0693 14.7803 80.2197 22.7324 120.221c13.9785 70.3174 30.0684 148.209 67.1943 210.552c16.8594 28.3086 41.5635 46.1133 75.6875 44.4297c38.4941 -1.89941 58.2383 -26.5947 74.877 -58.0537c36.3379 -68.7197 50.7441 -142.296 59.543 -218.896
c8.81641 -76.7754 12.1602 -154.023 17.8174 -231.061c5.44531 -74.1924 8.84766 -151.729 25.4277 -224.44c5.53125 -24.249 15.1133 -67.7607 44.3359 -75.2637c29.1279 -7.47559 62.4951 32.6748 77.1758 52.9678c42.918 59.3184 68.9316 131.152 78.5176 203.374
c2.31738 17.458 45.6895 16.1934 43.6689 0c-10.2119 -81.8252 -39.9199 -165.784 -93.2607 -229.729c-51.6309 -61.8926 -137.597 -84.7109 -203.472 -28.584c-60.835 51.833 -68.6797 146.449 -78.6982 220.579c-7.27734 53.8496 -10.918 108.149 -14.6982 162.409
c-46.0771 -1.3457 -92.4062 -0.0537109 -138.155 2.19238c-6.52148 0.319336 -13.0479 0.71582 -19.583 1.13867c-0.526367 -2.58301 -1.0166 -5.17969 -1.55176 -7.7627c-16.5801 -79.6836 -34.2002 -162.418 -70.4521 -235.827
c-30.0771 -60.9062 -82.6846 -118.812 -148.951 -140.473zM478.207 740.134c-0.03125 0.148438 -0.760742 -0.59375 -1.89941 -1.87207c1.36816 -0.134766 2.21875 0.301758 1.89941 1.87207zM458.891 716.979c-20.5088 -35.123 -33.21 -74.8398 -43.8184 -113.937
c-17.7373 -65.4121 -28.7051 -132.543 -41.127 -199.233c48.6025 -2.36719 96.9883 -1.84473 145.464 -1.37207c-0.873047 11.2783 -1.78711 22.543 -2.80469 33.7988c-7.34082 81.4072 -21.3643 161.635 -35.8828 241.998
c-3.14551 17.4219 -4.64844 36.252 -10.3281 53.1025c-5.10352 -6.13477 -10.9316 -13.376 -11.5029 -14.3574z" />
    <glyph glyph-name="A" unicode="&#xc4;" horiz-adv-x="873" 
d="M144.169 -25.7031c-62.9951 -20.5898 -142.904 -10.625 -185.619 44.0664c-22.125 28.3271 42.7695 34.876 58.958 19.6455c55.9922 -52.6748 132.971 -34.7891 182.374 16.8018c59.7588 62.4014 82.2119 152.589 101.637 234.252
c5.74316 24.1543 10.8965 48.4307 15.7793 72.7568c-43.2646 3.17285 -86.6455 5.59375 -129.631 0.462891c-13.8486 -1.65137 -42.207 -0.850586 -48.6611 15.748c-6.36816 16.3916 14.501 26.1084 27.6289 27.7373c53.332 6.625 106.223 3.91992 159.379 0.755859
c7.58398 40.0693 14.7803 80.2197 22.7324 120.221c13.9785 70.3174 30.0684 148.209 67.1943 210.552c16.8594 28.3086 41.5635 46.1133 75.6875 44.4297c38.4941 -1.89941 58.2383 -26.5947 74.877 -58.0537c36.3379 -68.7197 50.7441 -142.296 59.543 -218.896
c8.81641 -76.7754 12.1602 -154.023 17.8174 -231.061c5.44531 -74.1924 8.84766 -151.729 25.4277 -224.44c5.53125 -24.249 15.1133 -67.7607 44.3359 -75.2637c29.1279 -7.47559 62.4951 32.6748 77.1758 52.9678c42.918 59.3184 68.9316 131.152 78.5176 203.374
c2.31738 17.458 45.6895 16.1934 43.6689 0c-10.2119 -81.8252 -39.9199 -165.784 -93.2607 -229.729c-51.6309 -61.8926 -137.597 -84.7109 -203.472 -28.584c-60.835 51.833 -68.6797 146.449 -78.6982 220.579c-7.27734 53.8496 -10.918 108.149 -14.6982 162.409
c-46.0771 -1.3457 -92.4062 -0.0537109 -138.155 2.19238c-6.52148 0.319336 -13.0479 0.71582 -19.583 1.13867c-0.526367 -2.58301 -1.0166 -5.17969 -1.55176 -7.7627c-16.5801 -79.6836 -34.2002 -162.418 -70.4521 -235.827
c-30.0771 -60.9062 -82.6846 -118.812 -148.951 -140.473zM478.207 740.134c-0.03125 0.148438 -0.760742 -0.59375 -1.89941 -1.87207c1.36816 -0.134766 2.21875 0.301758 1.89941 1.87207zM458.891 716.979c-20.5088 -35.123 -33.21 -74.8398 -43.8184 -113.937
c-17.7373 -65.4121 -28.7051 -132.543 -41.127 -199.233c48.6025 -2.36719 96.9883 -1.84473 145.464 -1.37207c-0.873047 11.2783 -1.78711 22.543 -2.80469 33.7988c-7.34082 81.4072 -21.3643 161.635 -35.8828 241.998
c-3.14551 17.4219 -4.64844 36.252 -10.3281 53.1025c-5.10352 -6.13477 -10.9316 -13.376 -11.5029 -14.3574z" />
    <glyph glyph-name="A" unicode="&#xc3;" horiz-adv-x="873" 
d="M144.169 -25.7031c-62.9951 -20.5898 -142.904 -10.625 -185.619 44.0664c-22.125 28.3271 42.7695 34.876 58.958 19.6455c55.9922 -52.6748 132.971 -34.7891 182.374 16.8018c59.7588 62.4014 82.2119 152.589 101.637 234.252
c5.74316 24.1543 10.8965 48.4307 15.7793 72.7568c-43.2646 3.17285 -86.6455 5.59375 -129.631 0.462891c-13.8486 -1.65137 -42.207 -0.850586 -48.6611 15.748c-6.36816 16.3916 14.501 26.1084 27.6289 27.7373c53.332 6.625 106.223 3.91992 159.379 0.755859
c7.58398 40.0693 14.7803 80.2197 22.7324 120.221c13.9785 70.3174 30.0684 148.209 67.1943 210.552c16.8594 28.3086 41.5635 46.1133 75.6875 44.4297c38.4941 -1.89941 58.2383 -26.5947 74.877 -58.0537c36.3379 -68.7197 50.7441 -142.296 59.543 -218.896
c8.81641 -76.7754 12.1602 -154.023 17.8174 -231.061c5.44531 -74.1924 8.84766 -151.729 25.4277 -224.44c5.53125 -24.249 15.1133 -67.7607 44.3359 -75.2637c29.1279 -7.47559 62.4951 32.6748 77.1758 52.9678c42.918 59.3184 68.9316 131.152 78.5176 203.374
c2.31738 17.458 45.6895 16.1934 43.6689 0c-10.2119 -81.8252 -39.9199 -165.784 -93.2607 -229.729c-51.6309 -61.8926 -137.597 -84.7109 -203.472 -28.584c-60.835 51.833 -68.6797 146.449 -78.6982 220.579c-7.27734 53.8496 -10.918 108.149 -14.6982 162.409
c-46.0771 -1.3457 -92.4062 -0.0537109 -138.155 2.19238c-6.52148 0.319336 -13.0479 0.71582 -19.583 1.13867c-0.526367 -2.58301 -1.0166 -5.17969 -1.55176 -7.7627c-16.5801 -79.6836 -34.2002 -162.418 -70.4521 -235.827
c-30.0771 -60.9062 -82.6846 -118.812 -148.951 -140.473zM478.207 740.134c-0.03125 0.148438 -0.760742 -0.59375 -1.89941 -1.87207c1.36816 -0.134766 2.21875 0.301758 1.89941 1.87207zM458.891 716.979c-20.5088 -35.123 -33.21 -74.8398 -43.8184 -113.937
c-17.7373 -65.4121 -28.7051 -132.543 -41.127 -199.233c48.6025 -2.36719 96.9883 -1.84473 145.464 -1.37207c-0.873047 11.2783 -1.78711 22.543 -2.80469 33.7988c-7.34082 81.4072 -21.3643 161.635 -35.8828 241.998
c-3.14551 17.4219 -4.64844 36.252 -10.3281 53.1025c-5.10352 -6.13477 -10.9316 -13.376 -11.5029 -14.3574z" />
    <glyph glyph-name="A" unicode="&#xc2;" horiz-adv-x="873" 
d="M144.169 -25.7031c-62.9951 -20.5898 -142.904 -10.625 -185.619 44.0664c-22.125 28.3271 42.7695 34.876 58.958 19.6455c55.9922 -52.6748 132.971 -34.7891 182.374 16.8018c59.7588 62.4014 82.2119 152.589 101.637 234.252
c5.74316 24.1543 10.8965 48.4307 15.7793 72.7568c-43.2646 3.17285 -86.6455 5.59375 -129.631 0.462891c-13.8486 -1.65137 -42.207 -0.850586 -48.6611 15.748c-6.36816 16.3916 14.501 26.1084 27.6289 27.7373c53.332 6.625 106.223 3.91992 159.379 0.755859
c7.58398 40.0693 14.7803 80.2197 22.7324 120.221c13.9785 70.3174 30.0684 148.209 67.1943 210.552c16.8594 28.3086 41.5635 46.1133 75.6875 44.4297c38.4941 -1.89941 58.2383 -26.5947 74.877 -58.0537c36.3379 -68.7197 50.7441 -142.296 59.543 -218.896
c8.81641 -76.7754 12.1602 -154.023 17.8174 -231.061c5.44531 -74.1924 8.84766 -151.729 25.4277 -224.44c5.53125 -24.249 15.1133 -67.7607 44.3359 -75.2637c29.1279 -7.47559 62.4951 32.6748 77.1758 52.9678c42.918 59.3184 68.9316 131.152 78.5176 203.374
c2.31738 17.458 45.6895 16.1934 43.6689 0c-10.2119 -81.8252 -39.9199 -165.784 -93.2607 -229.729c-51.6309 -61.8926 -137.597 -84.7109 -203.472 -28.584c-60.835 51.833 -68.6797 146.449 -78.6982 220.579c-7.27734 53.8496 -10.918 108.149 -14.6982 162.409
c-46.0771 -1.3457 -92.4062 -0.0537109 -138.155 2.19238c-6.52148 0.319336 -13.0479 0.71582 -19.583 1.13867c-0.526367 -2.58301 -1.0166 -5.17969 -1.55176 -7.7627c-16.5801 -79.6836 -34.2002 -162.418 -70.4521 -235.827
c-30.0771 -60.9062 -82.6846 -118.812 -148.951 -140.473zM478.207 740.134c-0.03125 0.148438 -0.760742 -0.59375 -1.89941 -1.87207c1.36816 -0.134766 2.21875 0.301758 1.89941 1.87207zM458.891 716.979c-20.5088 -35.123 -33.21 -74.8398 -43.8184 -113.937
c-17.7373 -65.4121 -28.7051 -132.543 -41.127 -199.233c48.6025 -2.36719 96.9883 -1.84473 145.464 -1.37207c-0.873047 11.2783 -1.78711 22.543 -2.80469 33.7988c-7.34082 81.4072 -21.3643 161.635 -35.8828 241.998
c-3.14551 17.4219 -4.64844 36.252 -10.3281 53.1025c-5.10352 -6.13477 -10.9316 -13.376 -11.5029 -14.3574z" />
    <glyph glyph-name="A" unicode="&#xc1;" horiz-adv-x="873" 
d="M144.169 -25.7031c-62.9951 -20.5898 -142.904 -10.625 -185.619 44.0664c-22.125 28.3271 42.7695 34.876 58.958 19.6455c55.9922 -52.6748 132.971 -34.7891 182.374 16.8018c59.7588 62.4014 82.2119 152.589 101.637 234.252
c5.74316 24.1543 10.8965 48.4307 15.7793 72.7568c-43.2646 3.17285 -86.6455 5.59375 -129.631 0.462891c-13.8486 -1.65137 -42.207 -0.850586 -48.6611 15.748c-6.36816 16.3916 14.501 26.1084 27.6289 27.7373c53.332 6.625 106.223 3.91992 159.379 0.755859
c7.58398 40.0693 14.7803 80.2197 22.7324 120.221c13.9785 70.3174 30.0684 148.209 67.1943 210.552c16.8594 28.3086 41.5635 46.1133 75.6875 44.4297c38.4941 -1.89941 58.2383 -26.5947 74.877 -58.0537c36.3379 -68.7197 50.7441 -142.296 59.543 -218.896
c8.81641 -76.7754 12.1602 -154.023 17.8174 -231.061c5.44531 -74.1924 8.84766 -151.729 25.4277 -224.44c5.53125 -24.249 15.1133 -67.7607 44.3359 -75.2637c29.1279 -7.47559 62.4951 32.6748 77.1758 52.9678c42.918 59.3184 68.9316 131.152 78.5176 203.374
c2.31738 17.458 45.6895 16.1934 43.6689 0c-10.2119 -81.8252 -39.9199 -165.784 -93.2607 -229.729c-51.6309 -61.8926 -137.597 -84.7109 -203.472 -28.584c-60.835 51.833 -68.6797 146.449 -78.6982 220.579c-7.27734 53.8496 -10.918 108.149 -14.6982 162.409
c-46.0771 -1.3457 -92.4062 -0.0537109 -138.155 2.19238c-6.52148 0.319336 -13.0479 0.71582 -19.583 1.13867c-0.526367 -2.58301 -1.0166 -5.17969 -1.55176 -7.7627c-16.5801 -79.6836 -34.2002 -162.418 -70.4521 -235.827
c-30.0771 -60.9062 -82.6846 -118.812 -148.951 -140.473zM478.207 740.134c-0.03125 0.148438 -0.760742 -0.59375 -1.89941 -1.87207c1.36816 -0.134766 2.21875 0.301758 1.89941 1.87207zM458.891 716.979c-20.5088 -35.123 -33.21 -74.8398 -43.8184 -113.937
c-17.7373 -65.4121 -28.7051 -132.543 -41.127 -199.233c48.6025 -2.36719 96.9883 -1.84473 145.464 -1.37207c-0.873047 11.2783 -1.78711 22.543 -2.80469 33.7988c-7.34082 81.4072 -21.3643 161.635 -35.8828 241.998
c-3.14551 17.4219 -4.64844 36.252 -10.3281 53.1025c-5.10352 -6.13477 -10.9316 -13.376 -11.5029 -14.3574z" />
    <glyph glyph-name="B" unicode="B" horiz-adv-x="610" 
d="M8.11035 780.81c4.6084 24.3887 33.3438 31.3848 55.0596 31.3896c15.5859 0 58.5215 -7.49805 55.0605 -31.3877c-15.7969 -109.1 -27.5752 -217.848 -29.8662 -327.847c3.87988 -0.0898438 7.62012 -0.373047 11.0947 -0.836914
c23.2773 100.049 62.8105 206.551 135.824 281.432c60.7715 62.3291 184.569 90.3047 234.337 -1.37695c23.0293 -42.4268 16.751 -99.4541 2.4209 -143.592c-14.8516 -45.7529 -44.5957 -84.7236 -81.8018 -114.752c-35.1631 -28.3809 -76.1094 -53.1436 -119.792 -70.7725
c17.6562 -3.97363 34.7988 -9.69434 51.001 -17.3359c49.6416 -23.417 92.6406 -68.9092 117.938 -117.272c12.7188 -24.3164 20.1084 -49.7852 22.9482 -75.4971c51.2031 8.65918 101.268 21.2021 147.557 46.5312c10.3379 5.65723 26.9492 6.5752 37.1436 0
c9.02344 -5.81934 9.8877 -15.5273 0 -21.1709c-57.1084 -32.6025 -119.784 -45.9111 -183.428 -55.8848c-1.82227 -69.998 -35.3965 -139.159 -86.5908 -189.287c-44.9795 -44.0381 -103.168 -71.0596 -165.992 -75.2363
c-45.9062 -3.04688 -122.151 9.75293 -141.896 58.7646c-6.1123 15.1719 -6.94531 30.7441 -4.14551 45.9473c-19.4512 0.661133 -41.7969 7.58301 -46.4863 28.2314c-27.7373 122.191 -39.3623 249.595 -40.4062 374.761c-1.04395 125.04 6.77344 252.178 30.0195 375.192z
M301.787 29.1338c27.1074 32.6289 46.3018 73.833 54.5068 116.81c-4.54102 -0.810547 -9.08203 -1.63379 -13.6055 -2.50684c-44.7041 -8.60938 -89.2109 -20.7432 -128.123 -45.0693c-34.5557 -21.5986 -70.9023 -53.3867 -78.2744 -95.71
c-3.35742 -19.2715 -1.93066 -50.5596 21.4541 -56.7256c14.2441 -3.75391 35.5098 3.24414 48.4131 8.77051c37.6025 16.1035 69.6787 43.1973 95.6289 74.4316zM348.629 263.558c-13.4658 37.2295 -35.7236 66.0215 -70.8057 85.2256
c-43.6738 23.9121 -92.5098 15.2031 -139.708 11.1348c-2.88086 -0.24707 -6.17969 -0.426758 -9.63574 -0.421875c-0.962891 -6.52148 -1.88574 -13.0469 -2.75391 -19.5723c-11.1836 -83.999 -23.0107 -172.994 -14.4238 -258.397
c3.77637 3.69043 7.60645 7.16895 11.4414 10.3828c42.2969 35.4375 95.4043 56.3477 148.431 69.7861c29.1729 7.39453 59.0654 12.3584 89.1611 16.6611c1.67383 29.0332 -1.9082 58.1074 -11.7061 85.2012zM280.825 725.191
c-32.4854 -31.333 -57.0088 -71.1641 -77.3291 -111.165c-26.8105 -52.7607 -45.335 -108.793 -58.5625 -166.181c6.20605 0.260742 12.6016 0.90918 19.6445 2.10645c24.0283 4.08691 46.9229 12.7637 69.4795 21.792c39.6055 15.8516 76.0742 37.3467 109.379 63.9814
c34.8525 27.877 67.7656 62.1221 85.6016 103.546c16.751 38.9121 4.29785 94.5977 -34.1055 116.79c-39.416 22.7773 -85.25 -3.03809 -114.107 -30.8701z" />
    <glyph glyph-name="C" unicode="C" horiz-adv-x="483" 
d="M341.222 477.262c-5.14844 -15.6934 -49.6875 -11.9053 -43.5352 6.83984c21.0723 64.2646 42.7432 131.977 35.6768 200.489c-2.71875 26.333 -8.40723 61.8115 -30.1318 79.9443c-23.3623 19.501 -45.7891 -2.14648 -60.9648 -20.6396
c-28.9346 -35.2529 -53.6338 -78.166 -75.1104 -118.307c-24.4111 -45.623 -43.0615 -94.5986 -56.4463 -144.542c-27.917 -104.144 -34.0195 -218.792 -15.126 -324.975c7.97461 -44.8262 20.1582 -95.2061 52.0635 -129.653
c31.2031 -33.6963 80.9258 -45.5869 124.154 -31.1445c104.702 34.9746 161.662 142.017 210.305 232.992c7.96191 14.8877 52.2393 9.72559 43.5352 -6.84082c-34.2588 -65.2227 -69.6377 -132.224 -123.456 -183.756
c-47.7559 -45.7305 -107.083 -73.8232 -172.904 -81.0918c-62.6348 -6.91309 -126.151 11.3818 -171.801 55.8662c-45.2578 44.1104 -65.3213 107.682 -76.6631 168.232c-24.1816 129.149 -6.53906 270 40.1318 392.403c22.6738 59.4707 55.168 117.24 100.75 162.147
c45.0244 44.3535 107.952 83.2432 173.737 70.5107c61.8203 -11.9629 81.2363 -68.3828 84.333 -125.234c3.79395 -69.6914 -17.0938 -137.812 -38.5479 -203.242z" />
    <glyph glyph-name="D" unicode="D" horiz-adv-x="702" 
d="M116.207 711.95c-19.9014 -141.521 -27.6621 -284.183 -24.3408 -426.703c9.24902 33.4443 19.4697 66.6367 30.2578 99.5674c33.1016 101.062 72.0361 201.317 138.02 285.915c53.6025 68.7246 147.089 120.112 232.236 72.4512
c34.3438 -19.2266 56.7842 -54.0391 70.79 -89.9092c17.3232 -44.3623 27.1299 -93.1621 33.8447 -140.162c13.7451 -96.209 15.7617 -202.878 -10.5312 -298.282c41.8418 7.2959 83.2109 17.166 123.743 30.6719c8.90234 2.96582 25.834 3.37988 32.5664 -4.87012
c6.72363 -8.23633 0.143555 -15.6709 -8.53809 -18.5645c-51.3564 -17.1113 -103.919 -28.9121 -157.121 -37.1074c-25.082 -71.6631 -68.0625 -135.252 -136.679 -180.717c-79.5078 -52.6846 -191.056 -67.1992 -276.752 -20.9424
c-20.1533 10.8779 -38.6416 28.0117 -52.2832 47.9678c-0.603516 -0.374023 -1.24707 -0.720703 -1.89062 -1.0625c0.445312 -3.88867 0.832031 -7.78613 1.2959 -11.6748c2.82227 -23.7539 -39.1055 -30.9639 -54.3223 -30.9639
c-20.4736 0 -50.9521 6.91309 -54.3232 30.9639c-32.2197 229.918 -30.1768 463.59 1.93555 693.422c3.47852 24.915 34.9561 31.9453 56.0459 31.9453c15.9365 0 59.4668 -7.60645 56.0459 -31.9453zM416.328 101.446c17.4717 21.4277 31.8652 45.374 43.7559 70.708
c-1.66113 -0.117188 -3.32227 -0.251953 -4.9834 -0.364258c-48.3594 -3.30371 -96.8223 -4.7168 -145.275 -5.70703c-23.4932 -0.481445 -46.9912 -0.787109 -70.4844 -1.2998c-24.2676 -0.53125 -50.7539 -0.310547 -72.2627 -13.2188
c-77.667 -46.6123 21.6934 -141.827 79.8955 -146.895c69.4043 -6.04395 128.7 46.9189 169.354 96.7764zM260.091 541.587c-36.3018 -74.5303 -62.5312 -154.2 -86.1416 -233.523c-12.957 -43.5254 -24.2314 -87.5547 -33.2549 -132.025
c35.1943 17.0664 76.8066 16.4141 115.201 17.0303c51.2168 0.823242 102.447 1.50781 153.624 3.79883c20.9229 0.94043 41.8457 2.2002 62.7285 3.86133c14.4473 37.6201 24.0381 77.3203 30.1182 115.94c13.2861 84.377 20.8789 170.627 9.33496 255.666
c-6.49414 47.8232 -35.0146 165.465 -106.228 143.2c-34.7803 -10.873 -61.1309 -41.6523 -82.5137 -69.624c-24.668 -32.2695 -45.1055 -67.8604 -62.8691 -104.324z" />
    <glyph glyph-name="E" unicode="E" horiz-adv-x="456" 
d="M192.986 776.764c37.5938 7.41211 77.9492 7.73633 114.337 -5.48242c29.8076 -10.8281 64.0439 -30.3604 70.2998 -64.376c13.7002 -74.458 -82.6758 -122.633 -142.034 -130.937c-7.9707 -1.11621 -26.9141 -0.490234 -30.1904 9.77148
c-3.32129 10.4102 8.51953 15.9912 17.1426 17.2109c36.5225 5.1709 74.292 24.1631 94.5713 56.1807c21.6074 34.1104 7.25488 69.9941 -30.9736 82.5146c-64.5654 21.1436 -129.689 -47.4141 -163.192 -94.1172c-39.1279 -54.5381 -62.585 -128.397 -20.5898 -188.422
c7.10156 -10.1533 16.0801 -18.8887 26.4492 -25.6035c11.1025 -7.1875 19.3926 -9.79297 26.0088 -10.8418c4.43262 -0.77832 8.88867 -1.41309 13.3623 -1.9082c-6.58887 0.37793 -5.73828 0.301758 2.56055 -0.224609
c6.91699 -0.31543 13.834 -0.522461 20.7607 -0.508789c18.3447 0.0400391 36.8105 0.913086 55.1328 1.74121c18.9834 0.855469 45.5684 -5.63477 57.292 -21.9678c10.1758 -14.1729 2.43457 -32.0312 -12.9619 -39.0342
c-65.9561 -30.001 -124.892 -78.4766 -164.614 -139.438c-33.9619 -52.1172 -56.0459 -116.358 -33.9121 -177.549c9.02344 -24.9473 24.4834 -50.5557 46.6895 -65.8623c25.6221 -17.665 56.4688 -15.7881 85.7227 -10.4053
c119.648 22.0215 207.734 149.475 226.736 262.908c2.98438 17.8135 47.2168 16.2695 44.6562 0c-12.3545 -78.5088 -49.791 -151.104 -106.908 -206.506c-50.1191 -48.6113 -121.832 -92.0605 -192.303 -98.874c-78.9404 -7.63281 -158.421 26.6523 -191.154 101.938
c-50.8027 116.85 17.8135 239.955 109.378 322.123c-47.5713 8.40234 -91.1953 28.6816 -119.999 69.5557c-44.1963 62.7246 -27.0713 150.802 10.666 212.158c41.9502 68.2109 106.417 130.054 187.067 145.954z" />
    <glyph glyph-name="E" unicode="&#xcb;" horiz-adv-x="456" 
d="M192.986 776.764c37.5938 7.41211 77.9492 7.73633 114.337 -5.48242c29.8076 -10.8281 64.0439 -30.3604 70.2998 -64.376c13.7002 -74.458 -82.6758 -122.633 -142.034 -130.937c-7.9707 -1.11621 -26.9141 -0.490234 -30.1904 9.77148
c-3.32129 10.4102 8.51953 15.9912 17.1426 17.2109c36.5225 5.1709 74.292 24.1631 94.5713 56.1807c21.6074 34.1104 7.25488 69.9941 -30.9736 82.5146c-64.5654 21.1436 -129.689 -47.4141 -163.192 -94.1172c-39.1279 -54.5381 -62.585 -128.397 -20.5898 -188.422
c7.10156 -10.1533 16.0801 -18.8887 26.4492 -25.6035c11.1025 -7.1875 19.3926 -9.79297 26.0088 -10.8418c4.43262 -0.77832 8.88867 -1.41309 13.3623 -1.9082c-6.58887 0.37793 -5.73828 0.301758 2.56055 -0.224609
c6.91699 -0.31543 13.834 -0.522461 20.7607 -0.508789c18.3447 0.0400391 36.8105 0.913086 55.1328 1.74121c18.9834 0.855469 45.5684 -5.63477 57.292 -21.9678c10.1758 -14.1729 2.43457 -32.0312 -12.9619 -39.0342
c-65.9561 -30.001 -124.892 -78.4766 -164.614 -139.438c-33.9619 -52.1172 -56.0459 -116.358 -33.9121 -177.549c9.02344 -24.9473 24.4834 -50.5557 46.6895 -65.8623c25.6221 -17.665 56.4688 -15.7881 85.7227 -10.4053
c119.648 22.0215 207.734 149.475 226.736 262.908c2.98438 17.8135 47.2168 16.2695 44.6562 0c-12.3545 -78.5088 -49.791 -151.104 -106.908 -206.506c-50.1191 -48.6113 -121.832 -92.0605 -192.303 -98.874c-78.9404 -7.63281 -158.421 26.6523 -191.154 101.938
c-50.8027 116.85 17.8135 239.955 109.378 322.123c-47.5713 8.40234 -91.1953 28.6816 -119.999 69.5557c-44.1963 62.7246 -27.0713 150.802 10.666 212.158c41.9502 68.2109 106.417 130.054 187.067 145.954z" />
    <glyph glyph-name="E" unicode="&#xca;" horiz-adv-x="456" 
d="M192.986 776.764c37.5938 7.41211 77.9492 7.73633 114.337 -5.48242c29.8076 -10.8281 64.0439 -30.3604 70.2998 -64.376c13.7002 -74.458 -82.6758 -122.633 -142.034 -130.937c-7.9707 -1.11621 -26.9141 -0.490234 -30.1904 9.77148
c-3.32129 10.4102 8.51953 15.9912 17.1426 17.2109c36.5225 5.1709 74.292 24.1631 94.5713 56.1807c21.6074 34.1104 7.25488 69.9941 -30.9736 82.5146c-64.5654 21.1436 -129.689 -47.4141 -163.192 -94.1172c-39.1279 -54.5381 -62.585 -128.397 -20.5898 -188.422
c7.10156 -10.1533 16.0801 -18.8887 26.4492 -25.6035c11.1025 -7.1875 19.3926 -9.79297 26.0088 -10.8418c4.43262 -0.77832 8.88867 -1.41309 13.3623 -1.9082c-6.58887 0.37793 -5.73828 0.301758 2.56055 -0.224609
c6.91699 -0.31543 13.834 -0.522461 20.7607 -0.508789c18.3447 0.0400391 36.8105 0.913086 55.1328 1.74121c18.9834 0.855469 45.5684 -5.63477 57.292 -21.9678c10.1758 -14.1729 2.43457 -32.0312 -12.9619 -39.0342
c-65.9561 -30.001 -124.892 -78.4766 -164.614 -139.438c-33.9619 -52.1172 -56.0459 -116.358 -33.9121 -177.549c9.02344 -24.9473 24.4834 -50.5557 46.6895 -65.8623c25.6221 -17.665 56.4688 -15.7881 85.7227 -10.4053
c119.648 22.0215 207.734 149.475 226.736 262.908c2.98438 17.8135 47.2168 16.2695 44.6562 0c-12.3545 -78.5088 -49.791 -151.104 -106.908 -206.506c-50.1191 -48.6113 -121.832 -92.0605 -192.303 -98.874c-78.9404 -7.63281 -158.421 26.6523 -191.154 101.938
c-50.8027 116.85 17.8135 239.955 109.378 322.123c-47.5713 8.40234 -91.1953 28.6816 -119.999 69.5557c-44.1963 62.7246 -27.0713 150.802 10.666 212.158c41.9502 68.2109 106.417 130.054 187.067 145.954z" />
    <glyph glyph-name="E" unicode="&#xc9;" horiz-adv-x="456" 
d="M192.986 776.764c37.5938 7.41211 77.9492 7.73633 114.337 -5.48242c29.8076 -10.8281 64.0439 -30.3604 70.2998 -64.376c13.7002 -74.458 -82.6758 -122.633 -142.034 -130.937c-7.9707 -1.11621 -26.9141 -0.490234 -30.1904 9.77148
c-3.32129 10.4102 8.51953 15.9912 17.1426 17.2109c36.5225 5.1709 74.292 24.1631 94.5713 56.1807c21.6074 34.1104 7.25488 69.9941 -30.9736 82.5146c-64.5654 21.1436 -129.689 -47.4141 -163.192 -94.1172c-39.1279 -54.5381 -62.585 -128.397 -20.5898 -188.422
c7.10156 -10.1533 16.0801 -18.8887 26.4492 -25.6035c11.1025 -7.1875 19.3926 -9.79297 26.0088 -10.8418c4.43262 -0.77832 8.88867 -1.41309 13.3623 -1.9082c-6.58887 0.37793 -5.73828 0.301758 2.56055 -0.224609
c6.91699 -0.31543 13.834 -0.522461 20.7607 -0.508789c18.3447 0.0400391 36.8105 0.913086 55.1328 1.74121c18.9834 0.855469 45.5684 -5.63477 57.292 -21.9678c10.1758 -14.1729 2.43457 -32.0312 -12.9619 -39.0342
c-65.9561 -30.001 -124.892 -78.4766 -164.614 -139.438c-33.9619 -52.1172 -56.0459 -116.358 -33.9121 -177.549c9.02344 -24.9473 24.4834 -50.5557 46.6895 -65.8623c25.6221 -17.665 56.4688 -15.7881 85.7227 -10.4053
c119.648 22.0215 207.734 149.475 226.736 262.908c2.98438 17.8135 47.2168 16.2695 44.6562 0c-12.3545 -78.5088 -49.791 -151.104 -106.908 -206.506c-50.1191 -48.6113 -121.832 -92.0605 -192.303 -98.874c-78.9404 -7.63281 -158.421 26.6523 -191.154 101.938
c-50.8027 116.85 17.8135 239.955 109.378 322.123c-47.5713 8.40234 -91.1953 28.6816 -119.999 69.5557c-44.1963 62.7246 -27.0713 150.802 10.666 212.158c41.9502 68.2109 106.417 130.054 187.067 145.954z" />
    <glyph glyph-name="F" unicode="F" horiz-adv-x="379" 
d="M230.147 824.623c88.6123 -13.4072 94.4658 -129.507 83.8086 -198.168c-25.0596 -161.599 -112.088 -307.463 -207.442 -437.85c0.220703 -14.6582 0.603516 -29.3076 1.31445 -43.9297c0.0859375 -1.76465 0.180664 -3.59668 0.266602 -5.3877
c40.0195 18.3809 78.8467 39.4346 118.349 58.8184c53.7598 26.3779 106.719 55.3301 149.618 97.8604c11.5576 11.459 55.709 3.03418 39.835 -13.2715c-41.9551 -43.0977 -95.251 -73 -145.212 -105.679c-18.4619 -12.0801 -37.5762 -23.0254 -56.9736 -33.4756
c40.3887 -5.62109 78.7109 -20.6572 108.104 -46.207c60.1865 -52.3193 70.3447 -139.915 17.6064 -200.745c-56.3066 -64.9482 -156.873 -55.4746 -228.671 -24.0156c-40.1367 17.584 -76.5918 48.3096 -96.9658 87.5322
c-21.1484 40.7129 -28.2549 87.9922 -33.8535 133.053c-11.9219 95.9756 -6.76465 192.774 2.7002 288.723c9.45605 95.8721 22.9717 193.333 60.4033 282.927c30.0146 71.8428 96.1104 173.583 187.112 159.815zM300.485 -84.6367
c41.3154 47.2793 25.1982 119.23 -19.9336 156.734c-23.4395 19.4785 -51.8828 32.0576 -82.415 34.1865c-31.6123 2.20508 -58.4717 -7.46191 -86.8926 -17.5391c4.34277 -51.7432 13.8887 -106.507 41.959 -146.562c29.4658 -42.0488 107.749 -72.0547 147.282 -26.8193z
M260.177 606.62c6.86816 36.5273 10.6455 74.7285 3.38574 111.503c-3.49707 17.71 -9.72168 36.3467 -19.9062 51.4238c-4.63574 6.86328 -9.73535 11.0439 -16.0186 16.1475c-0.638672 0.517578 -2.47949 0.904297 -3.88379 1.24219
c-1.09863 -0.751953 -2.66016 -1.5625 -2.62402 -1.53516c-51.6396 -38.0801 -62.0225 -121.98 -72.6309 -180.349c-20.1719 -110.976 -36.6758 -224.706 -41.0371 -338.233c70.4707 103.559 129.474 216.2 152.715 339.801z" />
    <glyph glyph-name="G" unicode="G" horiz-adv-x="636" 
d="M520.127 176.464c41.6084 10.5762 81.7119 26.4863 118.995 50.4697c14.7803 9.51465 57.6084 -4.1582 34.0117 -19.3887c-46.6982 -30.1357 -97.7041 -48.8623 -150.663 -60.5371c1.25098 -39.875 -5.05469 -80.043 -16.9053 -118.087
c-31.5586 -101.3 -106.872 -184.296 -207.686 -219.423c-98.4375 -34.2988 -225.679 -24.5508 -294.057 61.9824c-52.5225 66.4736 -68.7969 182.832 6.03027 240.066c35.6582 27.2734 82.1631 35.9414 125.882 39.5781c59.1377 4.91895 118.582 3.86133 177.864 4.45117
c39.4023 0.391602 79.2686 1.61133 118.617 5.71094c4.33398 23.5244 6.93066 47.3057 7.56934 70.7812c0.774414 28.4307 -1.25977 56.6582 -16.3232 81.5469c-10.0859 16.666 -20.3066 27.1611 -41.041 19.9688c-14.5234 -5.03613 -27.7686 -16.0898 -39.7578 -25.3164
c-42.3779 -32.6113 -79.2334 -72.3564 -125.283 -100.192c-26.0635 -15.752 -49.3184 -27.2646 -80.8896 -22.9355c-24.0244 3.29492 -46.7295 14.3438 -64.1689 31.1982c-41.874 40.4736 -49.0977 103.324 -41.0371 158.142
c8.17285 55.5957 23.7402 111.673 43.9746 164.047c40.375 104.49 116.422 220.971 234.549 242.938c53.5117 9.95117 106.731 -7.51562 135.684 -53.8984c24.4297 -39.1377 30.3213 -81.3623 13.8174 -125.122c-15.748 -41.7568 -52.2529 -91.3223 -99.5947 -97.7578
c-50.8438 -6.9082 -71.083 33.1738 -75.7324 76.6543c-1.67871 15.6934 39.8486 16.5938 41.7031 0c1.45801 -13.0742 2.93848 -27.0576 9.29297 -38.8359c11.6074 -21.5088 29.9072 -8.97949 42.873 3.69824c20.748 20.2891 37.2969 48.0938 44.6279 76.2178
c6.86328 26.3242 5.42285 56.1182 -8.48828 79.958c-7.35352 12.6016 -17.1738 21.4727 -31.333 25.6582c-1.19238 0.350586 -13.2451 1.64648 -10.9766 3.14062c-6.52539 -1.93555 -15.7607 -5.63477 -19.1455 -6.76465
c-45.335 -15.127 -79.5938 -70.7725 -102.619 -109.797c-30.4512 -51.6084 -52.7295 -108.06 -68.4316 -165.793c-14.5234 -53.3857 -22.9805 -108.194 -24.0742 -163.516c-0.328125 -16.5439 0.0810547 -45.4424 13.6953 -57.8867
c0.774414 -0.710938 1.57129 -1.86719 2.47168 -2.78516c-0.553711 2.75879 11.665 7.97949 9.58984 6.7373c11.2021 6.70605 22.6152 12.876 33.4209 20.2656c58.1025 39.7266 172.656 172.85 242.033 79.6289c15.6895 -21.0811 27.4678 -48.2559 38.1025 -72.2129
c10.3242 -23.2549 17.9209 -47.9043 22.0117 -73.0225c0.517578 -3.18164 0.976562 -6.37305 1.39062 -9.56836zM404.492 66.2891c8.70898 21.3281 15.9434 43.6582 21.5781 66.458c-40.3887 -3.53711 -81.083 -4.6084 -121.139 -4.95508
c-93.748 -0.814453 -320.728 23.709 -290.011 -135.536c8.74902 -45.3389 41.3154 -85.6602 81.2041 -108.158c20.8066 -11.7373 42.7109 -19.667 66.3525 -22.583c7.87598 -0.97168 14.2305 -1.56543 24.8154 -0.849609
c-1.71484 -0.0537109 6.58398 0.873047 6.72363 0.895508c6.98535 1.17871 13.9795 2.19141 20.8701 3.89746c92.9326 23.0117 154.101 113.906 189.605 200.831z" />
    <glyph glyph-name="H" unicode="H" horiz-adv-x="734" 
d="M110.644 740.367c5.30176 43.458 113.208 39.958 108.145 -0.00292969c-15.8916 -125.878 -25.0508 -252.534 -27.1123 -379.397c60.668 -9.10449 120.801 -26.3955 181.698 -20.2969c1.91699 0.189453 3.79785 0.527344 5.69727 0.78418
c4.02344 61.1182 13.1553 121.674 25.001 182.144c8.57812 43.7861 17.7051 87.5586 29.1406 130.697c10.5312 39.7178 19.9912 84.9043 44.1504 118.956c22.791 32.125 69.2197 47.3682 105.562 28.29c28.9072 -15.1758 52.0947 -54.2002 62.9814 -83.832
c25.0996 -68.3057 13.376 -155.455 -13.5469 -221.682c-24.416 -60.0693 -65.7725 -114.207 -120.153 -149.807c-1.86328 -102.816 6.53027 -205.507 34.1328 -305.366c4.96875 -17.9619 12.291 -55.8701 30.293 -65.9375
c3.64551 -2.03906 -0.873047 -2.60156 7.27344 1.31836c7.26855 3.49707 14.2441 7.05273 20.6758 12.0029c13.6592 10.5176 25.293 24.9961 35.0635 39.0156c42.0488 60.3311 71.4111 129.506 89.1387 200.679c3.72656 14.9512 48.8096 11.9092 45.3086 -3.49609
c-19.5957 -86.25 -55.7441 -181.132 -116.547 -247.367c-64.251 -69.9893 -177.441 -52.6084 -225.135 27.0166c-43.5117 72.6484 -53.7324 168.862 -55.4023 251.777c-0.310547 15.4414 -0.207031 30.8291 0.224609 46.1758
c-52.3105 -3.55078 -105.535 4.84766 -158.967 14.623c-8.94727 1.63867 -17.9668 3.25879 -27.0312 4.72559c-0.391602 -55.6182 0.189453 -111.295 2.58789 -166.842c1.3457 -31.167 3.91113 -62.1895 6.53027 -93.2666
c2.55664 -30.3477 9.47852 -61.7754 7.49414 -92.209c-2.19629 -33.6738 -72.9189 -31.5273 -85.4355 -6.58984c-14.9463 29.7764 -19.4561 66.0967 -24.2402 98.7979c-4.51367 30.8564 -6.64258 62.1494 -8.51074 93.2666
c-3.34375 55.6816 -4.73438 111.48 -4.72949 167.261c-31.959 -7.92969 -70.1016 -27.2822 -67.0234 -62.9492c1.84082 -21.2832 -51.5547 -22.2734 -57.3916 -4.42871c-21.9854 67.2168 63.9092 98.1357 124.663 107.97c1.58887 126.354 10.1621 252.533 25.4639 377.97z
M534.52 609.59c-5.13477 -38.1875 -9.80176 -76.4414 -13.4521 -114.81c-2.29102 -24.1094 -4.2041 -48.291 -5.71191 -72.4951c7.59277 9.07324 14.5957 18.5557 20.8564 28.3398c35.5547 55.5957 62.1982 128.686 61.541 195.159
c-0.319336 32.3906 -3.4834 65.0332 -18.7949 94.1475c-3.8252 7.27344 -11.5664 13.6465 -16.1973 20.1094c-4.64453 -11.5166 -9.63086 -22.1699 -12.4844 -34.6768c-8.68164 -38.0303 -10.5723 -77.2129 -15.7568 -115.774z" />
    <glyph glyph-name="I" unicode="I" horiz-adv-x="343" 
d="M344.03 189.952c4.02344 14.6855 45.5527 11.5957 40.6924 -6.38867c-14.9287 -55.1865 -30.8115 -110.144 -53.6436 -162.67c-18.709 -43.0479 -43.2324 -94.8096 -87.5996 -116.579c-41.3018 -20.2666 -87.8428 -14.668 -125.468 11.1426
c-44.8799 30.7842 -58.6611 82.3428 -62.6445 134.108c-8.28125 107.641 10.1621 217.415 25.0635 323.732c14.748 105.233 30.752 210.084 44.209 315.502c2.92969 22.9531 10.2031 53.373 2.08398 75.8311c-7.88965 21.8232 -24.7305 37.292 -48.7998 30.9326
c-47.0723 -12.4355 -68.1035 -62.9814 -74.4268 -106.322c-2.49805 -17.0938 -42.6885 -17.5801 -44.165 -0.000976562c-7.4668 88.7832 112.618 180.222 190.551 117.271c32.7334 -26.4414 42.1758 -81.6455 51.5596 -120.225
c12.7236 -52.3154 15.3564 -105.823 15.9277 -159.452c1.16992 -109.859 -15.5049 -219.31 -24.1465 -328.647c-4.20801 -53.2598 -7.16895 -107.447 -5.59375 -160.883c0.445312 -15.1396 -0.576172 -113.262 21.877 -112.37
c22.165 0.881836 43.5654 36.9629 53.4941 53.2236c13.1641 21.5576 24.6318 44.2275 34.4609 67.4961c19.6855 46.5811 33.2373 95.6152 46.5684 144.298z" />
    <glyph glyph-name="I" unicode="&#xcf;" horiz-adv-x="343" 
d="M344.03 189.952c4.02344 14.6855 45.5527 11.5957 40.6924 -6.38867c-14.9287 -55.1865 -30.8115 -110.144 -53.6436 -162.67c-18.709 -43.0479 -43.2324 -94.8096 -87.5996 -116.579c-41.3018 -20.2666 -87.8428 -14.668 -125.468 11.1426
c-44.8799 30.7842 -58.6611 82.3428 -62.6445 134.108c-8.28125 107.641 10.1621 217.415 25.0635 323.732c14.748 105.233 30.752 210.084 44.209 315.502c2.92969 22.9531 10.2031 53.373 2.08398 75.8311c-7.88965 21.8232 -24.7305 37.292 -48.7998 30.9326
c-47.0723 -12.4355 -68.1035 -62.9814 -74.4268 -106.322c-2.49805 -17.0938 -42.6885 -17.5801 -44.165 -0.000976562c-7.4668 88.7832 112.618 180.222 190.551 117.271c32.7334 -26.4414 42.1758 -81.6455 51.5596 -120.225
c12.7236 -52.3154 15.3564 -105.823 15.9277 -159.452c1.16992 -109.859 -15.5049 -219.31 -24.1465 -328.647c-4.20801 -53.2598 -7.16895 -107.447 -5.59375 -160.883c0.445312 -15.1396 -0.576172 -113.262 21.877 -112.37
c22.165 0.881836 43.5654 36.9629 53.4941 53.2236c13.1641 21.5576 24.6318 44.2275 34.4609 67.4961c19.6855 46.5811 33.2373 95.6152 46.5684 144.298z" />
    <glyph glyph-name="I" unicode="&#xce;" horiz-adv-x="343" 
d="M344.03 189.952c4.02344 14.6855 45.5527 11.5957 40.6924 -6.38867c-14.9287 -55.1865 -30.8115 -110.144 -53.6436 -162.67c-18.709 -43.0479 -43.2324 -94.8096 -87.5996 -116.579c-41.3018 -20.2666 -87.8428 -14.668 -125.468 11.1426
c-44.8799 30.7842 -58.6611 82.3428 -62.6445 134.108c-8.28125 107.641 10.1621 217.415 25.0635 323.732c14.748 105.233 30.752 210.084 44.209 315.502c2.92969 22.9531 10.2031 53.373 2.08398 75.8311c-7.88965 21.8232 -24.7305 37.292 -48.7998 30.9326
c-47.0723 -12.4355 -68.1035 -62.9814 -74.4268 -106.322c-2.49805 -17.0938 -42.6885 -17.5801 -44.165 -0.000976562c-7.4668 88.7832 112.618 180.222 190.551 117.271c32.7334 -26.4414 42.1758 -81.6455 51.5596 -120.225
c12.7236 -52.3154 15.3564 -105.823 15.9277 -159.452c1.16992 -109.859 -15.5049 -219.31 -24.1465 -328.647c-4.20801 -53.2598 -7.16895 -107.447 -5.59375 -160.883c0.445312 -15.1396 -0.576172 -113.262 21.877 -112.37
c22.165 0.881836 43.5654 36.9629 53.4941 53.2236c13.1641 21.5576 24.6318 44.2275 34.4609 67.4961c19.6855 46.5811 33.2373 95.6152 46.5684 144.298z" />
    <glyph glyph-name="I" unicode="&#xcd;" horiz-adv-x="343" 
d="M344.03 189.952c4.02344 14.6855 45.5527 11.5957 40.6924 -6.38867c-14.9287 -55.1865 -30.8115 -110.144 -53.6436 -162.67c-18.709 -43.0479 -43.2324 -94.8096 -87.5996 -116.579c-41.3018 -20.2666 -87.8428 -14.668 -125.468 11.1426
c-44.8799 30.7842 -58.6611 82.3428 -62.6445 134.108c-8.28125 107.641 10.1621 217.415 25.0635 323.732c14.748 105.233 30.752 210.084 44.209 315.502c2.92969 22.9531 10.2031 53.373 2.08398 75.8311c-7.88965 21.8232 -24.7305 37.292 -48.7998 30.9326
c-47.0723 -12.4355 -68.1035 -62.9814 -74.4268 -106.322c-2.49805 -17.0938 -42.6885 -17.5801 -44.165 -0.000976562c-7.4668 88.7832 112.618 180.222 190.551 117.271c32.7334 -26.4414 42.1758 -81.6455 51.5596 -120.225
c12.7236 -52.3154 15.3564 -105.823 15.9277 -159.452c1.16992 -109.859 -15.5049 -219.31 -24.1465 -328.647c-4.20801 -53.2598 -7.16895 -107.447 -5.59375 -160.883c0.445312 -15.1396 -0.576172 -113.262 21.877 -112.37
c22.165 0.881836 43.5654 36.9629 53.4941 53.2236c13.1641 21.5576 24.6318 44.2275 34.4609 67.4961c19.6855 46.5811 33.2373 95.6152 46.5684 144.298z" />
    <glyph glyph-name="J" unicode="J" horiz-adv-x="514" 
d="M312.387 706.001c1.89062 17.71 5.08398 35.2012 6.38867 52.9834c0.625977 8.60938 0.117188 16.8633 -1.10742 24.9961c-20.2666 -5.1123 -40.4834 -10.4189 -60.6865 -15.6484c-73.2969 -18.9697 -146.459 -38.1201 -219.333 -58.665
c-12.2236 -3.44727 -37.792 -5.12598 -45.6406 8.76758c-8.46973 14.9912 8.8623 22.0664 20.8477 24.749c77.0059 17.2285 153.593 35.9062 230.22 54.7363c22.3408 5.49121 44.6455 11.1982 66.9951 16.6895
c-0.0136719 0.0498047 -0.0273438 0.0996094 -0.0449219 0.149414c-5.94043 18.3623 33.7598 22.7236 43.7373 10.1582c34.7227 7.77734 69.6748 14.3711 105.162 18.165c9.24902 0.990234 27.9668 0.643555 32.3096 -10.4551
c4.22168 -10.7881 -9.61328 -17.4717 -18.3447 -18.417c-36.6211 -3.96484 -72.752 -10.8145 -108.617 -18.9736c10.8643 -34.4072 20.041 -70.5557 24.3613 -105.562c5.97266 -48.3682 9.41602 -96.7949 12.6387 -145.415
c5.7334 -86.5508 6.05762 -173.998 1.19727 -260.725c36.293 -23.8398 77.5098 -37.2295 121.477 -24.9248c8.68164 2.43066 24.2803 3.47461 30.8828 -4.61719c6.23828 -7.6416 0.292969 -15.1348 -8.0957 -17.6055c-49.9658 -14.7129 -100.822 -7.87207 -146.454 13.002
c-0.0449219 -0.661133 -0.0761719 -1.32227 -0.125977 -1.9834c-5.87793 -80.6914 -14.8301 -166.64 -49.2188 -240.896c-33.9844 -73.3828 -103.974 -113.43 -185.093 -101.035c-153.638 23.4707 -190.79 223.811 -193.647 351.97
c-1.58398 70.8662 6.05371 154.303 39.3984 218.238c31.0186 59.4756 95.4902 77.3975 154.443 45.4023c53.5615 -29.0693 91.335 -81.7402 129.095 -130.248c3.0332 65.8398 6.10742 131.675 9.60938 197.491c2.08398 39.1953 3.47461 78.625 7.64648 117.672z
M243.719 26.7979c11.6299 32.8232 20.2676 66.6436 26.168 100.934c11.7373 68.2607 18.6006 137.125 22.4668 206.228c-33.4805 37.6562 -62.5908 79.4941 -96.6738 116.584c-21.7109 23.6279 -52.5176 59.0117 -86.9297 61.2715
c-32.1387 2.11035 -51.4414 -34.9609 -61.4639 -60.376c-25.1943 -63.8994 -31.5811 -138.146 -28.2324 -206.244c3.42969 -69.7188 20.7168 -144.397 54.75 -205.821c16.1299 -29.1143 36.0811 -52.4004 64.4756 -70.1328
c17.3545 -10.8379 41.7881 -22.1211 61.8066 -11.6934c23.4932 12.2412 35.4238 46.0771 43.6328 69.251z" />
    <glyph glyph-name="K" unicode="K" horiz-adv-x="515" 
d="M382.571 750.205c15.2256 -12.2285 -9.23047 -24.1992 -18.3574 -25.7021c14.5547 2.39453 8.04199 4.80664 6.28223 -3.17285c-0.810547 -3.68555 -3.0293 -7.77246 -4.23047 -11.4316c-3.33496 -10.1445 -7.00293 -20.1182 -10.626 -30.168
c-7.50684 -20.8242 -14.3838 -41.8691 -21.1436 -62.9502c-13.4482 -41.9326 -26.0811 -84.3369 -42.6748 -125.166c-29.4561 -72.4961 -76.4648 -143.223 -141.603 -188.139c25.9414 -25.9502 42.9717 -60.0469 61.0322 -92.6045
c27.6113 -49.7637 55.6865 -98.415 85.9619 -146.621c28.8223 -45.8926 73.4775 -72.1582 122.867 -38.2734c48.1299 33.0254 68.7832 94.4004 87.8477 146.738c6.21973 17.0752 54.75 12.9619 47.8057 -7.51172c-20.9502 -61.7568 -44.7939 -123.793 -99.5439 -163.435
c-54.0703 -39.1465 -121.813 -40.249 -180.335 -10.0811c-62.9766 32.4629 -99.9893 87.0781 -129.959 149.218c-18.7588 38.8984 -27.6426 89.9395 -54.2949 125.782c3.45215 -97.5371 12.3545 -194.813 24.5283 -291.685
c2.89844 -23.0791 -38.1738 -30.123 -52.8457 -30.123c-20.4912 0 -48.8047 6.78711 -52.8467 30.123c-21.6611 125.036 -30.8916 251.886 -31.4229 378.74c-0.53125 127.395 12.6416 252.367 25.5312 378.848c2.60156 25.4961 36.5361 32.6475 57.2793 32.6475
c15.4238 0 61.9336 -8.05176 57.2803 -32.6475c-21.5039 -113.699 -28.0166 -232.074 -28.9707 -348.063c16.9404 17.6602 32.3867 36.626 46.0146 57.8145c25.334 39.3799 46.001 82.1719 65.4395 124.702c21.751 47.5938 40.7793 96.7402 65.1143 143.11
c11.585 22.0801 26.0684 41.0137 50.4619 49.3398c21.7783 7.43066 47.3867 5.18945 65.4072 -9.28906z" />
    <glyph glyph-name="L" unicode="L" horiz-adv-x="414" 
d="M-12.6797 -65.3408c-48.6152 45.7891 -33.0244 119.356 19.2412 154.187c27.7236 18.4795 59.3086 26.0449 92.001 29.5059c-3.95117 23.6777 -7.53809 47.418 -10.8779 71.1943c-11.4268 81.4297 -20.6982 163.372 -26.4639 245.404
c-5.69336 80.9707 -6.54395 165.344 11.9043 244.784c16.9131 72.8154 65.2451 135.676 144.532 139.42c74.3408 3.51465 110.229 -64.9121 117.187 -130.207c14.875 -139.582 -53.1064 -287.485 -141.786 -391.463
c-0.441406 -0.517578 -0.954102 -0.990234 -1.49414 -1.44043c3.10059 -44.0967 5.37793 -88.2344 3.65918 -132.354c-0.535156 -13.8037 -1.42676 -27.3457 -2.65137 -40.7803c7.6377 0.418945 15.1982 0.958984 22.6289 1.72363
c41.2168 4.25293 82.3789 11.2285 122.466 21.7822c32.6973 8.60547 81.7588 28.3721 68.6934 71.8887c-6.04883 20.1494 40.9688 23.6602 45.9062 7.21484c25.8916 -86.2451 -100.701 -107.064 -157.823 -117.533c-34.6992 -6.35449 -69.7549 -10.4277 -104.945 -12.6602
c-2.49805 -18.8213 -5.78809 -37.5801 -10.1357 -56.6133c-7.42188 -32.5127 -15.541 -71.0195 -35.8115 -98.1357c-36.833 -49.2725 -113.708 -45.9688 -156.229 -5.91797zM189.119 648.186c-9.31152 -81.1455 -9.4707 -161.85 -5.15039 -243.333
c0.828125 -15.6709 1.89062 -31.3467 3.02441 -47.0312c35.1816 50.4561 62.2256 106.295 79.9268 165.474c11.9355 39.9023 20.1855 81.6992 21.0635 123.438c0.819336 38.9258 -5.81445 88.1982 -33.1465 118.42c-5.98145 6.61621 -13.7725 8.97949 -20.4287 13.6553
c-5.08594 -9.92383 -16.1709 -19.1006 -21.2969 -29.6279c-14.915 -30.6406 -20.1445 -67.46 -23.9922 -100.994zM35.6328 66.3438c-28.4082 -22.5615 -38.9922 -62.127 -23.5645 -95.418c15.6572 -33.7812 58.751 -55.1729 87.0508 -22.6924
c29.2451 33.5654 17.1025 76.9199 9.21289 116.332c-1.75977 8.79004 -3.39844 17.6025 -5.00977 26.4238c-24.416 -2.78613 -48.0762 -9.06934 -67.6895 -24.6455z" />
    <glyph glyph-name="M" unicode="M" horiz-adv-x="840" 
d="M93.3672 331.653c-0.274414 -15.6221 -0.412109 -31.2666 -0.420898 -46.9238c2.05664 14.6631 4.22559 29.3076 6.55664 43.9297c14.8789 93.2754 32.4316 192.464 73.7744 278.174c17.4805 36.2432 40.3389 75.9336 81.3438 88.1846
c41.1895 12.3096 75.5918 -7.72266 100.237 -39.8301c28.8984 -37.6523 37.1934 -86.9658 45.1592 -132.696c8.65039 -49.6465 11.1709 -100.242 13.4258 -150.5c0.495117 -11.1211 1.02637 -22.251 1.56152 -33.377c7.71875 35.5273 15.8691 70.9609 25.0283 106.124
c13.7363 52.7197 29.1104 106.552 53.6562 155.406c20.6084 41.0186 51.3203 88.8691 100.899 95.3545c22.9082 2.99707 49.0566 -2.52051 65.25 -19.9512c13.2139 -14.2217 17.6787 -35.5361 21.5762 -53.9395c11.9629 -56.4961 15.6133 -113.519 14.6904 -171.148
c-0.917969 -57.1123 -6.04395 -114.104 -7.52441 -171.193c-1.49902 -57.6621 3.37988 -114.581 8.44336 -171.937c2.10645 -23.8623 6.64746 -47.2021 18.9209 -68.0986c2.46191 -4.19434 6.83203 -12.5117 11.5713 -13.7676
c8.7627 -2.32227 24.2314 14.7529 29.2451 20.041c36.293 38.291 59.417 95.2549 74.1523 145.112c5.09961 17.2598 53.9854 13.3984 47.8057 -7.51172c-16.2559 -55.002 -39.7129 -111.759 -77.0322 -156.076c-36.4912 -43.3271 -97.8799 -53.3906 -147.256 -25.9365
c-97.9561 54.4619 -89.6572 204.913 -83.7168 299.524c3.60059 57.3066 10.9365 114.384 18.583 171.271c4.02344 29.9385 7.59277 59.9531 11.333 89.9229c2.99316 23.9707 7.79102 50.3711 5.33789 74.5527c-0.405273 3.99219 -2.50684 8.0918 -4.20312 11.998
c-7.43066 -7.85352 -17.2959 -18.9336 -17.7188 -19.5186c-14.0957 -19.5508 -24.9014 -41.4512 -34.2676 -63.5811c-22.3994 -52.9141 -37.9082 -108.753 -51.5498 -164.475c-27.3633 -111.795 -53.2324 -225.89 -68.3096 -340.021
c-0.382812 -2.87598 -1.53516 -5.39648 -3.25391 -7.5752c-2.54688 -26.0049 -44.4336 -33.5654 -64.0342 -33.5654c-23.0967 0 -61.6396 8.10547 -64.1689 36.5762c-9.03223 101.678 -8.19922 205.295 -3.45117 307.193c3.90625 83.7656 13.0244 168.377 8.4834 252.236
c-0.823242 15.2793 -0.666016 50.749 -21.207 55.2988c-19.0244 4.2168 -38.4219 -28.0166 -46.082 -40.582c-21.0039 -34.4521 -35.4688 -72.4326 -47.0762 -110.949c-25.4238 -84.3369 -40.4873 -171.757 -52.0039 -258.961
c-5.64844 -42.7734 -10.3203 -85.6689 -14.6182 -128.601c-2.29102 -22.8896 -4.47363 -45.793 -6.63867 -68.6963c-1.21094 -12.8271 -2.93457 -25.8838 -2.68262 -38.8047c0.823242 -4.6084 1.63379 -9.22168 2.51562 -13.8213
c0.40918 -2.12402 0.288086 -4.08203 -0.117188 -5.94043c0.288086 -1.2373 0.508789 -2.48828 0.864258 -3.72168c3.90234 -13.6006 -16.2158 -19.5146 -31.0361 -16.8408c-5.85938 -1.48926 -11.2959 -2.35352 -14.8916 -2.66895
c-19.3711 -1.70605 -46.5908 2.42969 -57.1719 21.2734c-26.0176 46.3516 -25.6348 109.59 -29.3252 161.347c-3.875 54.3271 -5.36914 108.812 -4.95996 163.269c0.841797 112.331 12.4307 223.379 22.3594 335.115c2.31348 26.0498 37.6074 33.3496 58.5078 33.3496
c16.5488 0 62.2031 -7.9707 58.5078 -33.3496c-15.8867 -109.117 -23.1367 -220.484 -25.0723 -330.695z" />
    <glyph glyph-name="N" unicode="N" horiz-adv-x="602" 
d="M108.247 713.422c-17.543 -119.081 -27.9932 -239.272 -27.3135 -359.704c0.292969 -51.6396 2.96191 -103.127 7.12012 -154.564c11.1934 64.6201 26.2393 128.578 45.1465 191.474c16.4854 54.8535 35.3252 109.491 58.7686 161.788
c19.3164 43.0801 44.8301 100.368 85.9111 127.088c19.4561 12.6514 44.9521 17.4668 66.8428 8.12793c16.9043 -7.21484 28.9482 -23.75 38.2334 -39.0703c30.0508 -49.5791 35.6094 -112.317 40.5244 -168.863c5.22559 -60.1553 6.26953 -120.486 10.6221 -180.682
c4.30273 -59.5615 14.2939 -117.943 25.0283 -176.586c5.30176 -28.9746 23.0967 -100.984 65.2129 -78.832c50.1006 26.3555 62.5488 89.6025 71.5859 140.221c3.27148 18.3398 48.876 16.7695 46.1309 0c-8.94238 -54.6104 -20.3467 -113.271 -64.3584 -151.207
c-42.7334 -36.833 -102.956 -46.5049 -154.263 -22.4629c-109.973 51.5322 -115.554 201.168 -118.164 306.063c-1.51172 60.7451 3.63672 120.257 9.36133 180.646c2.9707 31.3242 5.46387 62.4365 6.00391 93.9004c0.148438 8.7041 7.62891 70.4434 -2.11035 72.6484
c-9.14551 2.07031 -30.9551 -31.707 -34.0605 -36.2031c-7.39941 -10.7119 -14.249 -21.8193 -20.6357 -33.165c-12.8359 -22.791 -23.8223 -46.5635 -33.8545 -70.7051c-22.2285 -53.4854 -41.001 -108.527 -56.9512 -164.195
c-31.207 -108.896 -50.2939 -220.885 -57.999 -333.85c1.56641 -6.70996 2.66016 -13.4658 2.22852 -20.3604c-1.84961 -29.5059 -63.2559 -30.6582 -77.8379 -12.0166c-18.7139 23.9248 -27.0225 56.8193 -33.9893 86.1904
c-6.84082 28.8398 -11.8818 58.0537 -15.7979 87.4248c-7.86719 59.0254 -10.6533 118.888 -11.4541 178.395c-1.66504 123.33 8.33984 246.476 25.8516 368.501c3.32129 23.1602 32.4268 29.6992 52.1084 29.6992c14.708 0 55.4385 -7.10156 52.1084 -29.6992z" />
    <glyph glyph-name="O" unicode="O" horiz-adv-x="549" 
d="M430.461 172.589c-19.3887 -84.4805 -64.499 -162.776 -150.339 -192.391c-83.8105 -28.9121 -188.067 -10.7119 -232.029 72.8057c-38.1377 72.4551 -35.8379 166.221 -5.13965 241.264c-12.6602 11.8008 -23.9434 24.9873 -33.3633 39.6641
c-41.0186 63.9082 -51.1855 146.121 -32.7598 219.054c18.1377 71.7979 65.9658 154.24 133.907 189.282c77.7842 40.1182 157.242 3.66309 214.549 -52.4551c65.4521 -64.0928 94.6162 -155.612 110.742 -243.653c11.0576 -60.3623 13.9609 -122.43 8.55566 -183.674
c52.8232 11.5977 113.514 21.292 146.04 -26.1035c9.94629 -14.4922 -33.2051 -19.8438 -42.584 -6.69336c-18.6006 26.0762 -53.1699 14.1807 -78.9453 8.62695c-9.27539 -1.99805 -18.5605 -3.95605 -27.8545 -5.87305
c-2.69141 -20.1133 -6.24707 -40.1006 -10.7793 -59.8535zM32.1973 403.669c10.3828 -28.2139 25.1621 -54.376 43.8887 -76.9775c31.2031 7.79102 75.5117 -3.01953 66.2451 -32.3633c-1.96191 -6.21973 -3.78418 -12.6689 -5.46777 -19.2852
c10.54 -6.08008 21.6562 -11.3545 33.3896 -15.6299c48.4854 -17.6738 99.3965 -20.6807 150.123 -16.9004c3.97852 24.4971 6.54395 49.0928 8.18262 73.0537c5.37793 78.7471 2.8623 158.313 -7.61523 236.574c-9.32031 69.624 -35.2529 144.23 -106.728 170.86
c-74.8408 27.8857 -137.791 -56.9512 -166.307 -115.761c-30.2129 -62.3154 -40.002 -137.588 -15.7119 -203.571zM213.22 41.3027c23.7988 10.2207 47.3604 36.2666 61.6006 61.4521c19.2988 34.1328 31.9141 72.3252 40.2578 111.498
c-25.6895 -1.55762 -51.4512 -1.5127 -77.1406 0.804688c-35.5684 3.2041 -73.0312 11.5166 -108.091 25.5762c-9.7666 -62.9814 -4.15918 -134.096 34.0332 -182.549c7.91699 -10.041 19.6904 -18.7002 29.3486 -21.3379
c0.175781 -0.0136719 0.324219 -0.0224609 0.517578 -0.0361328c0.828125 -0.0585938 1.41309 -0.117188 1.9082 -0.175781c0.341797 0.0498047 0.669922 0.0996094 1.11523 0.158203c10.0273 1.30566 7.25977 0.662109 16.4502 4.60938z" />
    <glyph glyph-name="O" unicode="&#xd6;" horiz-adv-x="549" 
d="M430.461 172.589c-19.3887 -84.4805 -64.499 -162.776 -150.339 -192.391c-83.8105 -28.9121 -188.067 -10.7119 -232.029 72.8057c-38.1377 72.4551 -35.8379 166.221 -5.13965 241.264c-12.6602 11.8008 -23.9434 24.9873 -33.3633 39.6641
c-41.0186 63.9082 -51.1855 146.121 -32.7598 219.054c18.1377 71.7979 65.9658 154.24 133.907 189.282c77.7842 40.1182 157.242 3.66309 214.549 -52.4551c65.4521 -64.0928 94.6162 -155.612 110.742 -243.653c11.0576 -60.3623 13.9609 -122.43 8.55566 -183.674
c52.8232 11.5977 113.514 21.292 146.04 -26.1035c9.94629 -14.4922 -33.2051 -19.8438 -42.584 -6.69336c-18.6006 26.0762 -53.1699 14.1807 -78.9453 8.62695c-9.27539 -1.99805 -18.5605 -3.95605 -27.8545 -5.87305
c-2.69141 -20.1133 -6.24707 -40.1006 -10.7793 -59.8535zM32.1973 403.669c10.3828 -28.2139 25.1621 -54.376 43.8887 -76.9775c31.2031 7.79102 75.5117 -3.01953 66.2451 -32.3633c-1.96191 -6.21973 -3.78418 -12.6689 -5.46777 -19.2852
c10.54 -6.08008 21.6562 -11.3545 33.3896 -15.6299c48.4854 -17.6738 99.3965 -20.6807 150.123 -16.9004c3.97852 24.4971 6.54395 49.0928 8.18262 73.0537c5.37793 78.7471 2.8623 158.313 -7.61523 236.574c-9.32031 69.624 -35.2529 144.23 -106.728 170.86
c-74.8408 27.8857 -137.791 -56.9512 -166.307 -115.761c-30.2129 -62.3154 -40.002 -137.588 -15.7119 -203.571zM213.22 41.3027c23.7988 10.2207 47.3604 36.2666 61.6006 61.4521c19.2988 34.1328 31.9141 72.3252 40.2578 111.498
c-25.6895 -1.55762 -51.4512 -1.5127 -77.1406 0.804688c-35.5684 3.2041 -73.0312 11.5166 -108.091 25.5762c-9.7666 -62.9814 -4.15918 -134.096 34.0332 -182.549c7.91699 -10.041 19.6904 -18.7002 29.3486 -21.3379
c0.175781 -0.0136719 0.324219 -0.0224609 0.517578 -0.0361328c0.828125 -0.0585938 1.41309 -0.117188 1.9082 -0.175781c0.341797 0.0498047 0.669922 0.0996094 1.11523 0.158203c10.0273 1.30566 7.25977 0.662109 16.4502 4.60938z" />
    <glyph glyph-name="O" unicode="&#xd5;" horiz-adv-x="549" 
d="M430.461 172.589c-19.3887 -84.4805 -64.499 -162.776 -150.339 -192.391c-83.8105 -28.9121 -188.067 -10.7119 -232.029 72.8057c-38.1377 72.4551 -35.8379 166.221 -5.13965 241.264c-12.6602 11.8008 -23.9434 24.9873 -33.3633 39.6641
c-41.0186 63.9082 -51.1855 146.121 -32.7598 219.054c18.1377 71.7979 65.9658 154.24 133.907 189.282c77.7842 40.1182 157.242 3.66309 214.549 -52.4551c65.4521 -64.0928 94.6162 -155.612 110.742 -243.653c11.0576 -60.3623 13.9609 -122.43 8.55566 -183.674
c52.8232 11.5977 113.514 21.292 146.04 -26.1035c9.94629 -14.4922 -33.2051 -19.8438 -42.584 -6.69336c-18.6006 26.0762 -53.1699 14.1807 -78.9453 8.62695c-9.27539 -1.99805 -18.5605 -3.95605 -27.8545 -5.87305
c-2.69141 -20.1133 -6.24707 -40.1006 -10.7793 -59.8535zM32.1973 403.669c10.3828 -28.2139 25.1621 -54.376 43.8887 -76.9775c31.2031 7.79102 75.5117 -3.01953 66.2451 -32.3633c-1.96191 -6.21973 -3.78418 -12.6689 -5.46777 -19.2852
c10.54 -6.08008 21.6562 -11.3545 33.3896 -15.6299c48.4854 -17.6738 99.3965 -20.6807 150.123 -16.9004c3.97852 24.4971 6.54395 49.0928 8.18262 73.0537c5.37793 78.7471 2.8623 158.313 -7.61523 236.574c-9.32031 69.624 -35.2529 144.23 -106.728 170.86
c-74.8408 27.8857 -137.791 -56.9512 -166.307 -115.761c-30.2129 -62.3154 -40.002 -137.588 -15.7119 -203.571zM213.22 41.3027c23.7988 10.2207 47.3604 36.2666 61.6006 61.4521c19.2988 34.1328 31.9141 72.3252 40.2578 111.498
c-25.6895 -1.55762 -51.4512 -1.5127 -77.1406 0.804688c-35.5684 3.2041 -73.0312 11.5166 -108.091 25.5762c-9.7666 -62.9814 -4.15918 -134.096 34.0332 -182.549c7.91699 -10.041 19.6904 -18.7002 29.3486 -21.3379
c0.175781 -0.0136719 0.324219 -0.0224609 0.517578 -0.0361328c0.828125 -0.0585938 1.41309 -0.117188 1.9082 -0.175781c0.341797 0.0498047 0.669922 0.0996094 1.11523 0.158203c10.0273 1.30566 7.25977 0.662109 16.4502 4.60938z" />
    <glyph glyph-name="O" unicode="&#xd4;" horiz-adv-x="549" 
d="M430.461 172.589c-19.3887 -84.4805 -64.499 -162.776 -150.339 -192.391c-83.8105 -28.9121 -188.067 -10.7119 -232.029 72.8057c-38.1377 72.4551 -35.8379 166.221 -5.13965 241.264c-12.6602 11.8008 -23.9434 24.9873 -33.3633 39.6641
c-41.0186 63.9082 -51.1855 146.121 -32.7598 219.054c18.1377 71.7979 65.9658 154.24 133.907 189.282c77.7842 40.1182 157.242 3.66309 214.549 -52.4551c65.4521 -64.0928 94.6162 -155.612 110.742 -243.653c11.0576 -60.3623 13.9609 -122.43 8.55566 -183.674
c52.8232 11.5977 113.514 21.292 146.04 -26.1035c9.94629 -14.4922 -33.2051 -19.8438 -42.584 -6.69336c-18.6006 26.0762 -53.1699 14.1807 -78.9453 8.62695c-9.27539 -1.99805 -18.5605 -3.95605 -27.8545 -5.87305
c-2.69141 -20.1133 -6.24707 -40.1006 -10.7793 -59.8535zM32.1973 403.669c10.3828 -28.2139 25.1621 -54.376 43.8887 -76.9775c31.2031 7.79102 75.5117 -3.01953 66.2451 -32.3633c-1.96191 -6.21973 -3.78418 -12.6689 -5.46777 -19.2852
c10.54 -6.08008 21.6562 -11.3545 33.3896 -15.6299c48.4854 -17.6738 99.3965 -20.6807 150.123 -16.9004c3.97852 24.4971 6.54395 49.0928 8.18262 73.0537c5.37793 78.7471 2.8623 158.313 -7.61523 236.574c-9.32031 69.624 -35.2529 144.23 -106.728 170.86
c-74.8408 27.8857 -137.791 -56.9512 -166.307 -115.761c-30.2129 -62.3154 -40.002 -137.588 -15.7119 -203.571zM213.22 41.3027c23.7988 10.2207 47.3604 36.2666 61.6006 61.4521c19.2988 34.1328 31.9141 72.3252 40.2578 111.498
c-25.6895 -1.55762 -51.4512 -1.5127 -77.1406 0.804688c-35.5684 3.2041 -73.0312 11.5166 -108.091 25.5762c-9.7666 -62.9814 -4.15918 -134.096 34.0332 -182.549c7.91699 -10.041 19.6904 -18.7002 29.3486 -21.3379
c0.175781 -0.0136719 0.324219 -0.0224609 0.517578 -0.0361328c0.828125 -0.0585938 1.41309 -0.117188 1.9082 -0.175781c0.341797 0.0498047 0.669922 0.0996094 1.11523 0.158203c10.0273 1.30566 7.25977 0.662109 16.4502 4.60938z" />
    <glyph glyph-name="O" unicode="&#xd3;" horiz-adv-x="549" 
d="M430.461 172.589c-19.3887 -84.4805 -64.499 -162.776 -150.339 -192.391c-83.8105 -28.9121 -188.067 -10.7119 -232.029 72.8057c-38.1377 72.4551 -35.8379 166.221 -5.13965 241.264c-12.6602 11.8008 -23.9434 24.9873 -33.3633 39.6641
c-41.0186 63.9082 -51.1855 146.121 -32.7598 219.054c18.1377 71.7979 65.9658 154.24 133.907 189.282c77.7842 40.1182 157.242 3.66309 214.549 -52.4551c65.4521 -64.0928 94.6162 -155.612 110.742 -243.653c11.0576 -60.3623 13.9609 -122.43 8.55566 -183.674
c52.8232 11.5977 113.514 21.292 146.04 -26.1035c9.94629 -14.4922 -33.2051 -19.8438 -42.584 -6.69336c-18.6006 26.0762 -53.1699 14.1807 -78.9453 8.62695c-9.27539 -1.99805 -18.5605 -3.95605 -27.8545 -5.87305
c-2.69141 -20.1133 -6.24707 -40.1006 -10.7793 -59.8535zM32.1973 403.669c10.3828 -28.2139 25.1621 -54.376 43.8887 -76.9775c31.2031 7.79102 75.5117 -3.01953 66.2451 -32.3633c-1.96191 -6.21973 -3.78418 -12.6689 -5.46777 -19.2852
c10.54 -6.08008 21.6562 -11.3545 33.3896 -15.6299c48.4854 -17.6738 99.3965 -20.6807 150.123 -16.9004c3.97852 24.4971 6.54395 49.0928 8.18262 73.0537c5.37793 78.7471 2.8623 158.313 -7.61523 236.574c-9.32031 69.624 -35.2529 144.23 -106.728 170.86
c-74.8408 27.8857 -137.791 -56.9512 -166.307 -115.761c-30.2129 -62.3154 -40.002 -137.588 -15.7119 -203.571zM213.22 41.3027c23.7988 10.2207 47.3604 36.2666 61.6006 61.4521c19.2988 34.1328 31.9141 72.3252 40.2578 111.498
c-25.6895 -1.55762 -51.4512 -1.5127 -77.1406 0.804688c-35.5684 3.2041 -73.0312 11.5166 -108.091 25.5762c-9.7666 -62.9814 -4.15918 -134.096 34.0332 -182.549c7.91699 -10.041 19.6904 -18.7002 29.3486 -21.3379
c0.175781 -0.0136719 0.324219 -0.0224609 0.517578 -0.0361328c0.828125 -0.0585938 1.41309 -0.117188 1.9082 -0.175781c0.341797 0.0498047 0.669922 0.0996094 1.11523 0.158203c10.0273 1.30566 7.25977 0.662109 16.4502 4.60938z" />
    <glyph glyph-name="P" unicode="P" horiz-adv-x="518" 
d="M141.948 162.075c-5.86426 -62.0723 -8.48145 -124.419 -8.54492 -187.067c-0.00488281 -3.17285 -1.09863 -5.93164 -2.95703 -8.3125c0.981445 -5.06348 1.91309 -10.1357 2.71875 -15.2305c2.70508 -17.1201 -26.7061 -23.502 -37.9258 -24.4873
c-16.1973 -1.42676 -39.1816 2.02051 -47.9893 17.8584c-32.0938 57.6982 -42.2197 132.646 -52.0801 197.212c-10.4014 68.0986 -16.4775 136.558 -17.8057 205.435c-2.63281 136.598 8.71289 276.292 41.6348 409.132c5.14844 20.7744 43.9258 23.4023 59.8711 22.2773
c12.8809 -0.90918 51.208 -9.53223 47.3154 -30.5498c-24.6455 -133.065 -41.9053 -265.194 -39.8076 -400.865c0.121094 -7.93945 0.296875 -15.8789 0.512695 -23.8184c6.08008 30.8154 13.0107 61.46 20.7158 91.8525c15.2256 60.0518 32.9941 120.162 59.2598 176.415
c24.1504 51.7207 55.9062 104.185 104.373 136.44c46.8467 31.1758 108.892 36.1895 159.632 11.459c50.7041 -24.708 79.7871 -73.5527 86.3447 -128.37c13.5156 -112.997 -48.8984 -225.432 -127.556 -301.825c-41.8291 -40.6221 -91.8574 -72.5762 -145.014 -96.1904
c-24.1318 -10.7207 -48.3096 -18.0752 -72.7881 -23.1475c2.7002 -0.0947266 5.39648 -0.21582 8.09668 -0.301758c37.6436 -1.21094 75.251 -1.37305 112.881 0.449219c76.9199 3.72168 152.881 16.7959 224.351 46.1484
c19.8652 8.15918 57.2295 -12.7061 26.0176 -25.3711c-84.6562 -34.3574 -175.604 -47.0449 -266.454 -49.8711c-44.9111 -1.39941 -89.8945 -0.710938 -134.802 0.729492zM264.421 622.051c-53.5889 -92.1406 -80.5879 -201.141 -100.539 -304.961
c-4.88281 -25.415 -9.06836 -50.8799 -12.6826 -76.3896c21.9854 9.88379 43.1963 21.9404 63.2422 35.1768c42.7783 28.2461 83.333 61.9463 118.146 99.6162c59.5518 64.4443 130.414 167.68 102.704 260.334c-9.17676 30.667 -39.5195 79.6826 -77.7256 74.8896
c-41.7568 -5.23828 -74.1074 -55.9287 -93.1445 -88.666z" />
    <glyph glyph-name="Q" unicode="Q" horiz-adv-x="549" 
d="M444.584 262.483c52.8281 11.5977 113.518 21.292 146.043 -26.1084c9.94629 -14.4922 -33.2051 -19.8438 -42.584 -6.69336c-18.6006 26.0762 -53.1699 14.1807 -78.9453 8.62695c-9.27539 -1.99805 -18.5605 -3.95605 -27.8545 -5.87305
c-2.69629 -20.1133 -6.25195 -40.1006 -10.7842 -59.8535c-19.3936 -84.4766 -64.499 -162.773 -150.335 -192.388c-15.208 -5.24805 -31.0947 -8.9209 -47.1709 -10.9551c36.0908 -18.2676 75.3096 -34.6367 107.025 -7.08887
c14.0107 12.1699 38.0615 13.5781 54.5068 5.93164c16.4365 -7.6416 18.8037 -21.251 3.75391 -31.5527c-51.5322 -35.2666 -116.746 -36.0498 -174.403 -15.8154c-15.1895 5.3291 -29.9697 12.0439 -44.3721 19.2002c-7.01172 3.4834 -13.8027 7.4082 -20.8145 10.8828
c-3.04688 1.88086 -6.26465 3.375 -9.65332 4.47754c-0.301758 0.0898438 -0.53125 0.162109 -0.788086 0.243164c-8.40234 -3.40234 -14.9863 -13.4121 -19.2529 -20.7793c-7.59277 -13.1191 -10.2168 -17.7324 -24.5781 -23.9609
c-11.5527 -5.00879 -24.1094 -0.40918 -34.4336 4.8291c-4.73926 2.40332 -9.18555 7.42188 -9.41504 12.958c-1.32812 31.7656 21.085 52.0586 49.0605 61.8252c-25.2393 14.001 -46.7607 34.623 -61.4961 62.6123c-38.1377 72.4551 -35.8379 166.221 -5.13965 241.264
c-12.6602 11.8008 -23.9434 24.9873 -33.3633 39.6641c-41.0186 63.9082 -51.1855 146.121 -32.7598 219.054c18.1377 71.7979 65.9658 154.24 133.907 189.282c77.7881 40.1182 157.242 3.66309 214.549 -52.4551c65.4521 -64.0928 94.6162 -155.612 110.742 -243.653
c11.0576 -60.3623 13.9609 -122.43 8.55566 -183.674zM32.1924 403.667c10.3877 -28.2139 25.167 -54.376 43.8848 -76.9775c31.207 7.79102 75.5156 -3.01953 66.249 -32.3633c-1.9668 -6.21973 -3.78906 -12.6689 -5.46777 -19.2852
c10.54 -6.08008 21.6562 -11.3545 33.3896 -15.6299c48.4854 -17.6738 99.3965 -20.6807 150.123 -16.9004c3.97363 24.4971 6.53906 49.0928 8.17773 73.0537c5.38281 78.7471 2.86719 158.313 -7.61035 236.574c-9.32031 69.624 -35.2529 144.23 -106.728 170.86
c-74.8408 27.8857 -137.791 -56.9512 -166.307 -115.761c-30.2129 -62.3154 -40.002 -137.588 -15.7119 -203.571zM274.823 102.757c19.2988 34.1279 31.9199 72.3271 40.2549 111.496c-25.6895 -1.55762 -51.4512 -1.5127 -77.1406 0.804688
c-35.5684 3.2041 -73.0312 11.5166 -108.091 25.5762c-9.7666 -62.9814 -4.15918 -134.096 34.0332 -182.549c7.91699 -10.041 19.6904 -18.7002 29.3486 -21.3379c0.175781 -0.0136719 0.324219 -0.0224609 0.517578 -0.0361328
c0.828125 -0.0585938 1.41797 -0.117188 1.9082 -0.175781c0.341797 0.0498047 0.669922 0.0996094 1.11523 0.158203c10.0273 1.30469 7.25977 0.661133 16.4502 4.6084c23.7988 10.2207 47.3594 36.2656 61.6035 61.4551z" />
    <glyph glyph-name="R" unicode="R" horiz-adv-x="534" 
d="M100.1 467c-7.48047 -58.7334 -11.9189 -117.679 -14.6055 -176.803c2.65527 1.16113 5.29297 2.2998 7.91699 3.4248c12.9258 57.9316 29.0107 115.175 51.0547 170.294c25.9502 64.8809 59.6191 135.644 116.39 179.214
c49.0703 37.6611 127.201 56.8018 181.969 19.4287c48.8184 -33.3135 44.5156 -109.549 28.1426 -158.988c-21.3018 -64.3359 -75.7363 -120.814 -128.56 -161.086c-58.7734 -44.8076 -122.191 -78.3105 -188.458 -110.436
c-14.7393 -7.14746 -8.78027 -17.5215 -3.30273 -31.4238c6.04395 -15.3564 13.0645 -30.3164 21.1611 -44.7002c16.3281 -29.0107 37.6338 -52.8057 62.0049 -75.3086c21.1982 -19.5732 44.1377 -37.7822 73.1445 -43.0703
c34.9062 -6.36426 67.9727 7.55176 95.7598 27.8721c61.6631 45.0957 93.2617 117.556 124.365 184.817c7.02051 15.1807 51.5088 11.292 44.0059 -6.91699c-30.3252 -73.5938 -64.8086 -149.839 -130.324 -198.878c-64.417 -48.2148 -143.632 -55.1416 -220.169 -37.1885
c-46.8066 10.9814 -85.6426 34.0557 -117.381 65.7939c-3.37109 -29.8613 -5.44141 -59.8223 -5.28418 -89.873c1.84082 -11.6299 3.91602 -23.2148 6.16211 -34.7637c6.83594 -9.91895 1.93457 -19.9639 -8.3584 -26.2832
c-14.3701 -8.82129 -34.8389 -8.33105 -50.3213 -3.7002c-33.6777 10.0723 -39.7041 46.626 -47.1611 76.8477c-7.2959 29.5645 -11.6523 59.2637 -14.5234 89.5664c-5.90918 62.3379 -7.40332 125.27 -6.47168 187.854c1.91309 128.276 15.3066 261.823 49.2588 385.797
c5.53613 20.2119 42.3418 22.8047 58.2559 21.6797c12.8135 -0.904297 49.498 -9.19434 46.0371 -29.7217c-10.3203 -61.1943 -22.8594 -121.831 -30.708 -183.449zM280.222 609.524c-51.2617 -51.7979 -81.5137 -126.801 -104.827 -194.62
c-10.7568 -31.293 -19.7627 -63.0947 -27.6748 -95.1797c52.333 27.2871 102.775 58.418 148.848 95.3369c51.5996 41.3516 119.748 98.334 132.867 166.991c6.09375 31.9004 -13.2363 65.9473 -46.1631 71.5645c-38.7139 6.60254 -77.0186 -17.791 -103.05 -44.0928z" />
    <glyph glyph-name="S" unicode="S" horiz-adv-x="373" 
d="M-3.5498 618.509c31.5947 43.8271 80.3281 68.8828 134.507 68.6035c44.2812 -0.220703 99.9316 -18.5791 116.898 -63.7197c13.7041 -36.4639 -64.9443 -35.0459 -80.084 -12.583c-8.39844 12.4619 -25.3525 27.8447 -39.3496 24.4199
c-17.1113 -4.18555 -30.1182 -28.6279 -35.8389 -44.4111c-19.8389 -54.75 7.91211 -118.487 35.9014 -165.239c47.6123 -79.5254 115.778 -150.055 148.443 -237.34c14.5059 3.2002 28.9795 6.53516 43.2422 10.5811c23.3672 6.62891 46.374 15.8506 52.7471 41.585
c3.25391 13.1465 43.1162 11.0674 40.4746 -3.12305c-9.7168 -52.1572 -75.25 -63.6611 -118.19 -74.4941c-3.09668 -0.77832 -6.21094 -1.55273 -9.32129 -2.32227c3.40723 -12.5654 6.07129 -25.4824 7.75488 -38.8584
c6.24707 -49.6279 -13.5557 -105.273 -42.0088 -145.59c-27.4854 -38.9482 -72.4287 -56.5771 -119.303 -49.8984c-41.374 5.90039 -92.2529 23.1016 -99.8994 69.9795c-7.56055 46.3652 23.9121 92.4473 58.4316 120.059c24.3662 19.4873 51.8242 33.3174 80.6641 43.9434
c-3.94238 7.19629 -7.95703 14.3701 -12.1113 21.5166c-28.8896 49.7178 -62.2617 96.5195 -98.0098 141.485c-34.5781 43.4893 -74.458 91.6318 -88.5986 146.53c-13.2676 51.5137 -8.00195 104.968 23.6504 148.876zM201.238 102.461
c-4.68066 9.55469 -9.44336 19.0029 -14.2637 28.4092c-22.1611 -9.41992 -43.0303 -21.5 -61.4014 -38.3408c-29.3799 -26.9365 -71.5459 -96.5566 -22.4619 -126.216c21.8418 -13.2002 53.7148 -19.5283 76.6045 -6.77344
c18.4395 10.2744 36.2666 31.3467 42.2168 51.7705c8.2627 28.3584 -8.44336 66.1406 -20.6943 91.1504z" />
    <glyph glyph-name="T" unicode="T" horiz-adv-x="517" 
d="M554.71 728.751c8.92969 2.75 19.6875 5.45996 27.4736 10.7617c2.17871 1.5752 4.36133 3.15039 6.54004 4.7207c-0.283203 4.53223 0.405273 7.66016 1.97168 9.52344c-15.3604 3.94727 -22.7598 19.9922 0.769531 24.5107
c20.1084 3.86133 52.0625 -7.33594 44.1777 -33.6641c-7.63281 -25.4824 -48.3906 -35.3838 -70.1191 -41.0996c-69.7148 -18.3359 -142.939 -16.7432 -214.454 -14.3125c0.125977 -53.3457 -2.26367 -106.728 -1.95312 -160.101
c0.418945 -71.9287 2.75879 -143.894 7.27734 -215.688c4.51855 -71.834 12.4893 -143.209 19.6768 -214.796c3.6543 -36.374 8.75781 -72.6035 12.2861 -108.981c1.62891 -16.7871 2.55176 -33.8984 5.13086 -50.5732c1.38184 -8.92871 5.19434 -15.374 7.89453 -23.6729
c3.45605 -10.6172 -1.82324 -17.5801 -10.7432 -23.165c-34.0557 -21.3193 -86.6992 -5.9043 -103.793 30.0557c-7.77246 16.3467 -9.94629 36.874 -14.0371 54.3184c-4.40137 18.7676 -8.08301 37.5977 -11.458 56.5771c-13.9297 78.3418 -23.4346 157.035 -30.127 236.313
c-6.79102 80.498 -10.9004 161.221 -11.7734 242.002c-0.643555 59.5654 -1.54785 119.738 3.51074 179.236c-35.9014 -1.66992 -71.5059 -6.21094 -105.989 -16.6074c-59.5703 -17.957 -142.813 -70.2451 -105.287 -144.168
c8.44336 -16.6299 -35.5996 -21.6836 -43.0566 -6.76367c-26.0762 52.1758 4.42871 106.422 48.3271 136.846c50.4648 34.9785 115.386 48.4307 175.541 53.5566c10.9902 0.936523 21.9805 1.50391 32.9668 1.93164c1.30078 11.2832 2.82227 22.5439 4.66309 33.7549
c7.49316 45.6631 116.975 47.9355 119.477 0c0.607422 -11.6426 0.945312 -23.2852 1.1748 -34.9326c14.7715 -0.458984 29.543 -0.890625 44.3232 -1.12012c36.2617 -0.5625 72.6133 0.00878906 108.591 4.97754c17.21 2.37598 34.3936 5.43652 51.0186 10.5586z" />
    <glyph glyph-name="U" unicode="U" horiz-adv-x="687" 
d="M62.4414 658.146c17.0303 0 65.0996 -8.36816 60.9639 -34.751c-16.7422 -106.988 -30.3877 -214.211 -27.8633 -322.761c1.80957 -77.7432 5.70703 -164.223 49.5791 -231.457c15.9189 -24.3975 41.4912 -55.542 73.9316 -44.2998
c43.1113 14.9463 67.7207 60.2988 85.1426 99.3555c37.2783 83.5625 52.7471 174.335 69.1973 263.713c12.0664 65.5645 31.5449 131.517 42.4229 197.986c1.26465 8.92969 2.56055 17.8457 3.90137 26.7393c2.11035 17.0127 3.53223 34.0605 3.96387 51.1494
c0.108398 4.29395 2.75879 7.54785 6.71973 9.79785c8.3623 19.5908 35.2666 25.4639 55.123 25.4639c16.9492 0 59.8984 -7.60645 57.2793 -32.6475c-8.77637 -83.9277 -21.6846 -167.302 -27.625 -251.54c-5.81934 -82.5371 -5.34668 -164.498 1.31836 -246.94
c3.05176 -37.7871 6.28809 -77.3164 21.6172 -112.403c9.54102 -21.8457 31.3281 -56.6621 59.0654 -38.0967c26.1934 17.5303 39.6992 52.3154 50.3203 80.4668c14.8789 39.4209 24.7754 80.1377 30.4639 121.863c2.59668 19.042 49.8887 17.6016 47.6064 0
c-5.19336 -40.0557 -14.0596 -79.5713 -27.2549 -117.772c-11.0576 -32.0215 -24.5146 -64.9209 -48.4219 -89.6963c-45.7617 -47.4229 -113.145 -45.2666 -164.829 -8.63184c-61.2979 43.4443 -74.3721 124.141 -82.4053 194.431
c-2.32227 20.334 -4.00098 40.7627 -5.16699 61.2451c-17.0352 -78.3516 -41.0684 -160.235 -92.2852 -220.746c-63.918 -75.5205 -175.376 -76.8525 -244.104 -5.81934c-67.2529 69.5078 -80.6514 171.06 -84.8281 263.516
c-4.93262 109.279 4.67578 219.711 25.1982 327.082c5.16211 26.999 36.873 34.7539 60.9697 34.7539z" />
    <glyph glyph-name="U" unicode="&#xdc;" horiz-adv-x="687" 
d="M62.4414 658.146c17.0303 0 65.0996 -8.36816 60.9639 -34.751c-16.7422 -106.988 -30.3877 -214.211 -27.8633 -322.761c1.80957 -77.7432 5.70703 -164.223 49.5791 -231.457c15.9189 -24.3975 41.4912 -55.542 73.9316 -44.2998
c43.1113 14.9463 67.7207 60.2988 85.1426 99.3555c37.2783 83.5625 52.7471 174.335 69.1973 263.713c12.0664 65.5645 31.5449 131.517 42.4229 197.986c1.26465 8.92969 2.56055 17.8457 3.90137 26.7393c2.11035 17.0127 3.53223 34.0605 3.96387 51.1494
c0.108398 4.29395 2.75879 7.54785 6.71973 9.79785c8.3623 19.5908 35.2666 25.4639 55.123 25.4639c16.9492 0 59.8984 -7.60645 57.2793 -32.6475c-8.77637 -83.9277 -21.6846 -167.302 -27.625 -251.54c-5.81934 -82.5371 -5.34668 -164.498 1.31836 -246.94
c3.05176 -37.7871 6.28809 -77.3164 21.6172 -112.403c9.54102 -21.8457 31.3281 -56.6621 59.0654 -38.0967c26.1934 17.5303 39.6992 52.3154 50.3203 80.4668c14.8789 39.4209 24.7754 80.1377 30.4639 121.863c2.59668 19.042 49.8887 17.6016 47.6064 0
c-5.19336 -40.0557 -14.0596 -79.5713 -27.2549 -117.772c-11.0576 -32.0215 -24.5146 -64.9209 -48.4219 -89.6963c-45.7617 -47.4229 -113.145 -45.2666 -164.829 -8.63184c-61.2979 43.4443 -74.3721 124.141 -82.4053 194.431
c-2.32227 20.334 -4.00098 40.7627 -5.16699 61.2451c-17.0352 -78.3516 -41.0684 -160.235 -92.2852 -220.746c-63.918 -75.5205 -175.376 -76.8525 -244.104 -5.81934c-67.2529 69.5078 -80.6514 171.06 -84.8281 263.516
c-4.93262 109.279 4.67578 219.711 25.1982 327.082c5.16211 26.999 36.873 34.7539 60.9697 34.7539z" />
    <glyph glyph-name="U" unicode="&#xdb;" horiz-adv-x="687" 
d="M62.4414 658.146c17.0303 0 65.0996 -8.36816 60.9639 -34.751c-16.7422 -106.988 -30.3877 -214.211 -27.8633 -322.761c1.80957 -77.7432 5.70703 -164.223 49.5791 -231.457c15.9189 -24.3975 41.4912 -55.542 73.9316 -44.2998
c43.1113 14.9463 67.7207 60.2988 85.1426 99.3555c37.2783 83.5625 52.7471 174.335 69.1973 263.713c12.0664 65.5645 31.5449 131.517 42.4229 197.986c1.26465 8.92969 2.56055 17.8457 3.90137 26.7393c2.11035 17.0127 3.53223 34.0605 3.96387 51.1494
c0.108398 4.29395 2.75879 7.54785 6.71973 9.79785c8.3623 19.5908 35.2666 25.4639 55.123 25.4639c16.9492 0 59.8984 -7.60645 57.2793 -32.6475c-8.77637 -83.9277 -21.6846 -167.302 -27.625 -251.54c-5.81934 -82.5371 -5.34668 -164.498 1.31836 -246.94
c3.05176 -37.7871 6.28809 -77.3164 21.6172 -112.403c9.54102 -21.8457 31.3281 -56.6621 59.0654 -38.0967c26.1934 17.5303 39.6992 52.3154 50.3203 80.4668c14.8789 39.4209 24.7754 80.1377 30.4639 121.863c2.59668 19.042 49.8887 17.6016 47.6064 0
c-5.19336 -40.0557 -14.0596 -79.5713 -27.2549 -117.772c-11.0576 -32.0215 -24.5146 -64.9209 -48.4219 -89.6963c-45.7617 -47.4229 -113.145 -45.2666 -164.829 -8.63184c-61.2979 43.4443 -74.3721 124.141 -82.4053 194.431
c-2.32227 20.334 -4.00098 40.7627 -5.16699 61.2451c-17.0352 -78.3516 -41.0684 -160.235 -92.2852 -220.746c-63.918 -75.5205 -175.376 -76.8525 -244.104 -5.81934c-67.2529 69.5078 -80.6514 171.06 -84.8281 263.516
c-4.93262 109.279 4.67578 219.711 25.1982 327.082c5.16211 26.999 36.873 34.7539 60.9697 34.7539z" />
    <glyph glyph-name="U" unicode="&#xda;" horiz-adv-x="687" 
d="M62.4414 658.146c17.0303 0 65.0996 -8.36816 60.9639 -34.751c-16.7422 -106.988 -30.3877 -214.211 -27.8633 -322.761c1.80957 -77.7432 5.70703 -164.223 49.5791 -231.457c15.9189 -24.3975 41.4912 -55.542 73.9316 -44.2998
c43.1113 14.9463 67.7207 60.2988 85.1426 99.3555c37.2783 83.5625 52.7471 174.335 69.1973 263.713c12.0664 65.5645 31.5449 131.517 42.4229 197.986c1.26465 8.92969 2.56055 17.8457 3.90137 26.7393c2.11035 17.0127 3.53223 34.0605 3.96387 51.1494
c0.108398 4.29395 2.75879 7.54785 6.71973 9.79785c8.3623 19.5908 35.2666 25.4639 55.123 25.4639c16.9492 0 59.8984 -7.60645 57.2793 -32.6475c-8.77637 -83.9277 -21.6846 -167.302 -27.625 -251.54c-5.81934 -82.5371 -5.34668 -164.498 1.31836 -246.94
c3.05176 -37.7871 6.28809 -77.3164 21.6172 -112.403c9.54102 -21.8457 31.3281 -56.6621 59.0654 -38.0967c26.1934 17.5303 39.6992 52.3154 50.3203 80.4668c14.8789 39.4209 24.7754 80.1377 30.4639 121.863c2.59668 19.042 49.8887 17.6016 47.6064 0
c-5.19336 -40.0557 -14.0596 -79.5713 -27.2549 -117.772c-11.0576 -32.0215 -24.5146 -64.9209 -48.4219 -89.6963c-45.7617 -47.4229 -113.145 -45.2666 -164.829 -8.63184c-61.2979 43.4443 -74.3721 124.141 -82.4053 194.431
c-2.32227 20.334 -4.00098 40.7627 -5.16699 61.2451c-17.0352 -78.3516 -41.0684 -160.235 -92.2852 -220.746c-63.918 -75.5205 -175.376 -76.8525 -244.104 -5.81934c-67.2529 69.5078 -80.6514 171.06 -84.8281 263.516
c-4.93262 109.279 4.67578 219.711 25.1982 327.082c5.16211 26.999 36.873 34.7539 60.9697 34.7539z" />
    <glyph glyph-name="V" unicode="V" horiz-adv-x="716" 
d="M365.489 31.7734c30.0645 25.2578 50.8389 61.7256 69.6016 95.6514c27.7285 50.1543 49.8809 103.162 70.5879 156.656c-23.1377 6.30957 -46.0459 13.3574 -68.333 22.3809c-86.7803 35.127 -154.896 96.5059 -169.402 192.607
c-11.6426 77.1406 13.9883 157.144 66.5918 214.347c53.9756 58.6973 140.729 93.5811 219.566 69.2734c95.2461 -29.3662 92.874 -143.979 81.1006 -224.17c-12.2871 -83.6982 -41.3203 -163.98 -70.9834 -243.065c65.2637 -15.9551 146.594 -29.8848 190.839 -83.9463
c16.333 -19.9561 -27.3496 -20.9512 -37.3857 -16.4414c-46.6582 20.9688 -94.0273 38.499 -143.525 51.3887c-8.60547 2.23633 -17.2285 4.41504 -25.8564 6.58887c-31 -82.6982 -64.8984 -171.014 -122.992 -238.514
c-62.0723 -72.1221 -156.225 -62.2158 -228.662 -10.585c-74.1924 52.8779 -117.668 140.658 -149.929 223.506c-36.3916 93.4551 -63.7324 191.123 -85.29 289.007c-5.06348 22.9893 37.5391 32.1885 51.7969 33.4443c17.3359 1.52539 59.2324 -1.93066 65.5469 -24.3887
c26.3281 -93.6621 46.8867 -188.733 79.8135 -280.482c27.3184 -76.1191 57.0312 -158.746 114.985 -217.492c11.999 -12.165 25.9736 -24.2266 42.3828 -29.9336c19.209 -6.67871 34.9023 1.86328 49.5469 14.168zM373.693 410.732
c36.2568 -47.1172 92.2158 -68.7461 148.127 -84.2959c3.06055 8.10547 6.1123 16.2109 9.16797 24.3027c30.8926 81.7939 59.4893 165.946 65.2773 253.825c2.66406 40.5283 0.643555 86.1377 -24.7441 119.91c-24.4922 32.584 -61.6221 36.2295 -98.1396 24.2041
c-129.995 -42.8008 -181.905 -231.102 -99.6885 -337.946z" />
    <glyph glyph-name="W" unicode="W" horiz-adv-x="893" 
d="M115.134 582.868c-9.91016 -86.7314 -17.9004 -173.502 -20.6279 -260.8c-2.26855 -72.3877 -5.36035 -148.052 10.8057 -219.17c7.04785 -30.9912 18.3311 -62.9004 36.7344 -89.0625c12.8848 -18.3223 35.7705 -39.0381 59.7676 -36.6982
c67.2842 6.55762 87.8965 112.191 101.119 163.724c11.1299 43.3906 19.7354 87.4424 26.7695 131.742c-3.47852 36.4365 -5.80957 73.0215 -9.37402 109.166c-2.66895 27.0752 43.9756 35.1719 61.708 35.1719c22.1338 0 59.3721 -7.79102 61.708 -35.1729
c7.07031 -82.9863 7.20508 -167.598 31.8232 -247.861c10.585 -34.5059 24.6494 -68.332 46.2705 -97.5186c12.0029 -16.2021 34.6455 -43.8672 57.1035 -45.2891c27.2598 -1.72852 55.875 28.876 70.6816 47.9004c20.8779 26.8232 34.9697 59.3037 46.1045 91.1768
c14.1367 40.4697 26.4727 82.4961 36.1309 124.964c-17.417 6.98926 -34.1816 15.6123 -49.9424 25.8379c-62.7695 40.7217 -109.414 103.501 -125.193 177.077c-14.7754 68.8955 -1.82227 143.795 34.4258 204.171c31.248 52.0498 94.5352 113.897 158.759 72.8477
c26.707 -17.0713 38.5479 -48.792 45.5234 -78.1904c10.1172 -42.6299 12.8486 -86.3213 12.9297 -130.022c0.157227 -86.6729 -8.83984 -173.004 -19.8164 -258.894c49.0205 -12.5479 107.834 -5.09082 144.041 -47.1807
c15.0049 -17.4443 -28.6514 -24.8525 -39.4082 -13.1289c-26.8232 29.2402 -71.7979 24.29 -107.758 31.5273c-0.207031 0.0449219 -0.40918 0.0986328 -0.611328 0.138672c-9.96387 -73.6387 -24.1768 -151.823 -66.9365 -213.49
c-45.5508 -65.6904 -119.685 -101.97 -199.327 -81.6631c-79.9619 20.3877 -134.802 100.967 -159.843 175.213c-2.82227 8.37109 -5.31152 16.8145 -7.63379 25.2939c-5.08984 -21.3828 -10.7646 -42.6396 -17.1963 -63.7158
c-20.3828 -66.8066 -62.7061 -135.968 -138.789 -143.979c-84.2158 -8.87109 -160.987 44.416 -191.501 121.574c-31.4141 79.4316 -29.6816 170.938 -27.5938 254.797c2.24121 90.0527 8.45703 180.312 21.1484 269.515c3.72656 26.2246 36.7432 33.6279 58.999 33.6279
c17.2734 0 61.9375 -7.88086 58.999 -33.6289zM643.553 371.322c24.0059 -35.0957 57.1523 -64.3809 95.0791 -84.0215c3.82129 19.8701 7.03906 39.7812 9.43359 59.624c9.01953 74.751 13.9658 151.212 9.71289 226.48c-1.98047 35.0645 -5.5625 72.2441 -18.4658 105.171
c-4.99609 12.7588 -12.085 27.9258 -23.5527 36.1074c-13.5195 9.64453 -26.3418 -0.729492 -37.1836 -10.2217c-92.748 -81.1816 -102.551 -234.414 -35.0234 -333.14z" />
    <glyph glyph-name="X" unicode="X" horiz-adv-x="638" 
d="M-40.7832 -14.2852c9.97754 57.1582 40.4482 108.672 72.6729 156.153c24.3799 35.9326 50.875 70.4434 78.3555 104.104c-11.333 34.0781 -20.9736 68.6699 -30.0557 102.532c-23.9658 89.333 -46.0234 180.597 -60.749 271.941
c-4.01465 24.9014 38.9395 34.2178 55.2139 35.6494c17.7822 1.56152 63.9717 -2.04395 69.8633 -26.001c21.3955 -87.0195 36.2246 -175.461 58.9756 -262.215c0.87793 -3.34375 1.77832 -6.69629 2.66504 -10.0449c21.3418 24.0107 42.8906 47.8369 64.5381 71.5596
c43.0938 47.2334 86.4658 97.1494 136.409 137.259c10.2881 8.2627 24.4785 10.1084 37.1025 6.93066c6.45801 -1.625 24.3701 -9.83887 17.2002 -19.9785c-35.2715 -49.8799 -80.0977 -93.8916 -121.134 -139.037c-38.5928 -42.459 -76.7939 -85.2998 -114.172 -128.83
c13.3125 -45.2627 28.376 -90.0703 47.0674 -133.137c24.501 -56.4512 58.5342 -116.188 112.37 -149.694c152.085 -94.6572 234.172 137.277 246.715 248.353c1.9082 16.8867 43.9121 15.7656 42.1934 0c-9.375 -86.0156 -38.0977 -183.242 -100.881 -246.048
c-53.9355 -53.9531 -141.45 -64.8584 -212.901 -46.5811c-80.3311 20.5498 -141.53 75.2773 -185.276 143.93c-14.7842 23.2051 -27.4619 47.8594 -38.5967 73.3555c-10.3652 -13.8525 -20.4824 -27.8809 -30.1992 -42.1885
c-32.8496 -48.3545 -56.6309 -99.459 -78.8643 -153.295c-8.27637 -20.0459 -72.9365 -20.0684 -68.5127 5.2832z" />
    <glyph glyph-name="Y" unicode="Y" horiz-adv-x="743" 
d="M587.776 710.713c40.6133 -157.967 57.7812 -322.618 54.8779 -485.585c13.1328 2.70898 26.1533 5.93164 38.9668 9.97363c25.4326 8.02441 54.6953 17.3135 61.5859 46.2393c3.15527 13.2363 43.2783 11.4229 40.9561 -3.15918
c-8.8125 -55.3623 -84.9268 -69.4854 -128.925 -83.8154c-4.43359 -1.44043 -8.89355 -2.71875 -13.3447 -4.06934c-1.68359 -59.7812 -5.72559 -123.046 -26.626 -178.439c-20.9229 -55.4561 -64.165 -113.941 -119.257 -138.74
c-106.039 -47.7334 -247.97 -7.82617 -314.844 86.7949c-35.9873 50.915 -32.0176 111.372 9.16699 157.782c41.707 47 107.754 66.8301 167.882 75.4395c57.752 8.27246 116.291 10.7031 174.457 16.3965c-2.29492 32.9668 -5.10742 65.8936 -8.45117 98.6807
c-7.89453 77.415 -18.3809 153.948 -30.9873 230.229c-8.05566 -32.8818 -17.9658 -65.2998 -29.9912 -97.002c-14.1182 -37.2109 -31.1533 -73.3467 -51.3926 -107.628c-19.1816 -32.4902 -40.8877 -67.415 -69.7861 -92.2178
c-55.2949 -47.4639 -147.922 -51.915 -214.873 -30.1768c-170.573 55.3887 -163.017 287.962 -156.666 431.374c2.1377 48.2734 123.348 47.1396 121.939 0c-2.57031 -86.1465 -7.95801 -174.408 10.6787 -259.299c10.8379 -49.3672 32.2471 -111.741 76.1279 -141.706
c28.5791 -19.5146 67.5771 -15.9502 97.8525 -2.01172c31.1709 14.3477 52.3818 44.0742 70.96 71.7754c71.0732 105.958 107.389 230.206 121.745 356.07c-2.19629 11.1572 -4.37012 22.3145 -6.64746 33.4805c-5.00488 24.5234 39.5693 34.1504 54.9971 35.5098
c17.9346 1.58008 63.4629 -2.03418 69.5977 -25.8965zM537.858 113.221c-0.666016 17.5752 -1.51953 35.1641 -2.49121 52.7617c-27.584 -4.48242 -55.3887 -7.86719 -83.373 -10.4277c-57.2383 -5.24316 -120.791 -6.40918 -169.812 -40.4248
c-40.5098 -28.1104 -72.6709 -89.125 -49.9199 -137.313c44.916 -95.1475 220.8 -140.091 283.809 -40.1553c30.9551 49.1016 23.8936 120.085 21.7871 175.56z" />
    <glyph glyph-name="Y" unicode="&#x178;" horiz-adv-x="743" 
d="M587.776 710.713c40.6133 -157.967 57.7812 -322.618 54.8779 -485.585c13.1328 2.70898 26.1533 5.93164 38.9668 9.97363c25.4326 8.02441 54.6953 17.3135 61.5859 46.2393c3.15527 13.2363 43.2783 11.4229 40.9561 -3.15918
c-8.8125 -55.3623 -84.9268 -69.4854 -128.925 -83.8154c-4.43359 -1.44043 -8.89355 -2.71875 -13.3447 -4.06934c-1.68359 -59.7812 -5.72559 -123.046 -26.626 -178.439c-20.9229 -55.4561 -64.165 -113.941 -119.257 -138.74
c-106.039 -47.7334 -247.97 -7.82617 -314.844 86.7949c-35.9873 50.915 -32.0176 111.372 9.16699 157.782c41.707 47 107.754 66.8301 167.882 75.4395c57.752 8.27246 116.291 10.7031 174.457 16.3965c-2.29492 32.9668 -5.10742 65.8936 -8.45117 98.6807
c-7.89453 77.415 -18.3809 153.948 -30.9873 230.229c-8.05566 -32.8818 -17.9658 -65.2998 -29.9912 -97.002c-14.1182 -37.2109 -31.1533 -73.3467 -51.3926 -107.628c-19.1816 -32.4902 -40.8877 -67.415 -69.7861 -92.2178
c-55.2949 -47.4639 -147.922 -51.915 -214.873 -30.1768c-170.573 55.3887 -163.017 287.962 -156.666 431.374c2.1377 48.2734 123.348 47.1396 121.939 0c-2.57031 -86.1465 -7.95801 -174.408 10.6787 -259.299c10.8379 -49.3672 32.2471 -111.741 76.1279 -141.706
c28.5791 -19.5146 67.5771 -15.9502 97.8525 -2.01172c31.1709 14.3477 52.3818 44.0742 70.96 71.7754c71.0732 105.958 107.389 230.206 121.745 356.07c-2.19629 11.1572 -4.37012 22.3145 -6.64746 33.4805c-5.00488 24.5234 39.5693 34.1504 54.9971 35.5098
c17.9346 1.58008 63.4629 -2.03418 69.5977 -25.8965zM537.858 113.221c-0.666016 17.5752 -1.51953 35.1641 -2.49121 52.7617c-27.584 -4.48242 -55.3887 -7.86719 -83.373 -10.4277c-57.2383 -5.24316 -120.791 -6.40918 -169.812 -40.4248
c-40.5098 -28.1104 -72.6709 -89.125 -49.9199 -137.313c44.916 -95.1475 220.8 -140.091 283.809 -40.1553c30.9551 49.1016 23.8936 120.085 21.7871 175.56z" />
    <glyph glyph-name="Y" unicode="&#xdd;" horiz-adv-x="743" 
d="M587.776 710.713c40.6133 -157.967 57.7812 -322.618 54.8779 -485.585c13.1328 2.70898 26.1533 5.93164 38.9668 9.97363c25.4326 8.02441 54.6953 17.3135 61.5859 46.2393c3.15527 13.2363 43.2783 11.4229 40.9561 -3.15918
c-8.8125 -55.3623 -84.9268 -69.4854 -128.925 -83.8154c-4.43359 -1.44043 -8.89355 -2.71875 -13.3447 -4.06934c-1.68359 -59.7812 -5.72559 -123.046 -26.626 -178.439c-20.9229 -55.4561 -64.165 -113.941 -119.257 -138.74
c-106.039 -47.7334 -247.97 -7.82617 -314.844 86.7949c-35.9873 50.915 -32.0176 111.372 9.16699 157.782c41.707 47 107.754 66.8301 167.882 75.4395c57.752 8.27246 116.291 10.7031 174.457 16.3965c-2.29492 32.9668 -5.10742 65.8936 -8.45117 98.6807
c-7.89453 77.415 -18.3809 153.948 -30.9873 230.229c-8.05566 -32.8818 -17.9658 -65.2998 -29.9912 -97.002c-14.1182 -37.2109 -31.1533 -73.3467 -51.3926 -107.628c-19.1816 -32.4902 -40.8877 -67.415 -69.7861 -92.2178
c-55.2949 -47.4639 -147.922 -51.915 -214.873 -30.1768c-170.573 55.3887 -163.017 287.962 -156.666 431.374c2.1377 48.2734 123.348 47.1396 121.939 0c-2.57031 -86.1465 -7.95801 -174.408 10.6787 -259.299c10.8379 -49.3672 32.2471 -111.741 76.1279 -141.706
c28.5791 -19.5146 67.5771 -15.9502 97.8525 -2.01172c31.1709 14.3477 52.3818 44.0742 70.96 71.7754c71.0732 105.958 107.389 230.206 121.745 356.07c-2.19629 11.1572 -4.37012 22.3145 -6.64746 33.4805c-5.00488 24.5234 39.5693 34.1504 54.9971 35.5098
c17.9346 1.58008 63.4629 -2.03418 69.5977 -25.8965zM537.858 113.221c-0.666016 17.5752 -1.51953 35.1641 -2.49121 52.7617c-27.584 -4.48242 -55.3887 -7.86719 -83.373 -10.4277c-57.2383 -5.24316 -120.791 -6.40918 -169.812 -40.4248
c-40.5098 -28.1104 -72.6709 -89.125 -49.9199 -137.313c44.916 -95.1475 220.8 -140.091 283.809 -40.1553c30.9551 49.1016 23.8936 120.085 21.7871 175.56z" />
    <glyph glyph-name="Z" unicode="Z" horiz-adv-x="644" 
d="M545.169 173.088c-74.3232 -162.013 -243.506 -329.917 -435.029 -307.243c-74.3594 8.79395 -172.266 63.3994 -147.111 152.435c10.8242 38.3223 42.8369 66.2256 74.9033 87.3652c35.874 23.6465 75.1504 43.0215 114.644 59.7949
c97.8613 41.5635 201.609 62.4287 306.653 68.334c1.26953 2.8125 2.63281 5.59375 3.86133 8.41992c19.9111 45.7578 35.8789 94.0449 45.0469 143.407l-38.1709 -11.4902c-8.65039 -2.60547 -23.5293 -3.17285 -30.2129 4.51465
c-6.43555 7.39941 -0.00390625 14.7764 7.92188 17.2197c21.7197 6.69727 43.4395 13.3896 65.1641 20.082c1.52148 12.0664 2.64648 24.1729 3.25391 36.3066c1.94434 38.7725 1.33691 81.2988 -15.7344 116.836c-14.5684 30.3252 -35.042 57.2842 -59.9482 79.8682
c-57.0049 51.6895 -135.262 74.5029 -211.191 62.1709c-71.8164 -11.666 -156.117 -57.0635 -180.344 -129.991c-4.91895 -14.8066 -46.8779 -11.3096 -41.1621 6.46777c29.0879 90.5117 141.031 141.94 228.856 150.762c93.4463 9.38379 189.31 -20.2891 255.797 -87.8477
c60.0205 -60.9834 92.542 -149.808 99.4326 -233.915c5.05859 -61.6943 -3.72656 -123.276 -22.6201 -181.834c33.0029 -1.20117 65.9697 -3.67676 98.7744 -7.25c8.60547 -0.94043 20.4424 -6.93945 17.1436 -17.21c-3.37988 -10.5273 -21.7334 -10.6807 -30.1904 -9.77148
c-31.3779 3.37109 -63.2959 5.69824 -95.4307 6.7334c-4.41016 -11.5303 -9.1582 -22.9395 -14.3066 -34.1641zM39.1562 -6.90039c2.33984 -30.0283 27.126 -54.4492 54.3145 -64.3457c29.7178 -10.8193 61.3252 -3.14551 89.8906 7.4668
c65.8125 24.4473 122.367 79.3818 168.26 130.869c36.9092 41.4053 68.4355 88.2344 93.7559 137.849c-95.543 -7.32227 -189.695 -29.1904 -274.136 -73.2783c-30.1992 -15.7656 -59.7412 -34.1328 -85.3906 -56.6895c-23.7363 -20.874 -49.3447 -47.833 -46.6943 -81.8711
z" />
    <glyph glyph-name="bracketleft" unicode="[" horiz-adv-x="493" 
d="M426.106 -192.338c11.877 -5.28809 25.0293 -20.334 11.2031 -31.9775c-89.2109 -75.1377 -233.244 -108.469 -329.237 -24.2764c-41.1133 36.0635 -50.0654 89.9629 -54.4268 141.692c-4.78906 56.834 -4.10059 113.938 -2.22363 170.884
c3.79883 115.283 10.9775 230.422 22.166 345.219c11.3867 116.836 26.3516 233.158 45.6318 348.959c4.90137 29.4248 9.76172 58.8633 14.8789 88.252c4.22168 24.2578 6.58496 50.0732 13.6689 73.71c16.4268 54.8311 86.7939 39.5557 128.83 33.4707
c26.3916 -3.82129 15.1621 -25.8252 -6.06738 -25.5508c-9.74414 0.125977 -36.1084 1.53906 -45.1768 -3.33984c-0.31543 2.37598 -0.734375 1.9082 -1.25195 -1.4043c-1.16992 -2.84863 -1.59277 -5.83691 -1.26465 -8.96484
c-0.441406 -4.80664 -0.234375 -10.2881 -0.396484 -14.9824c-0.900391 -26.4775 -1.9668 -52.9502 -3.12305 -79.4141c-2.31348 -52.9541 -3.83887 -105.994 -7.1875 -158.895c-12.2998 -194.458 -27.0664 -389.118 -32.6475 -583.913
c-1.37695 -48.2148 -2.15137 -96.4971 0.310547 -144.689c2.10156 -41.0859 1.49414 -92.208 24.7041 -128.118c7.97949 -12.3545 19.9014 -22.2871 33.1016 -28.7676c8.44336 -4.14551 21.8232 -6.52637 26.1621 -6.6748c37.3906 -1.26465 73.7822 18.835 105.237 36.8418
c16.5625 9.48242 39.9023 9.59473 57.1084 1.93945z" />
    <glyph glyph-name="backslash" unicode="\" horiz-adv-x="417" 
d="M365.979 -241.39c13.1152 -51.6035 -102.33 -59.6055 -116.156 -18.2588c-56.9912 170.438 -84.5439 352.352 -111.683 529.527c-13.5244 88.293 -26.1895 176.712 -40.7803 264.838c-14.748 89.0898 -31.9268 177.698 -47.1348 266.675
c-4.91016 28.7275 71.6904 31.1396 80.1152 6.18359c57.2842 -169.65 85.6562 -349.729 119.641 -525.072c16.8145 -86.7578 32.5977 -173.678 51.3789 -260.044c19.2578 -88.5586 42.3096 -176.046 64.6191 -263.849z" />
    <glyph glyph-name="bracketright" unicode="]" horiz-adv-x="414" 
d="M351.305 459.031c11.2783 -114.698 14.7383 -230.633 11.2012 -345.816c-3.34375 -108.667 -7.0791 -224.886 -44.0293 -328.359c-15.959 -44.6953 -45.4922 -85.876 -87.8027 -108.748c-48.7959 -26.374 -117.507 -34.3848 -166.163 -3.56934
c-16.9443 10.7295 -19.9912 26.6523 -4.11328 39.3662c18.3125 14.668 46.5312 13.7002 67.8555 7.72363c0.855469 -0.238281 1.54004 -0.40918 2.21973 -0.576172c1.4541 0.117188 4.15039 0.292969 5.08203 0.527344c0.134766 0.229492 10.1484 5.30664 12.4707 6.94043
c14.5234 10.1982 24.7305 25.2979 32.6826 40.915c20.9863 41.2168 30.8467 88.5186 38.417 133.776c15.3691 91.8574 18.1914 185.596 20.3477 278.533c2.19629 94.6611 1.03516 189.106 -2.87109 283.714c-3.875 93.9326 -9.22168 189.251 -21.9316 282.445
c-5.7832 42.3594 -13.3486 86.0244 -32.6025 124.586c-8.16406 16.3594 -37.9131 66.1904 -62.6846 54.7227c-16.4404 -7.60645 -39.4111 -10.2979 -55.5957 0c-12.8623 8.18652 -15.5674 24.1416 0 31.6895c49.9609 24.2227 111.453 17.3818 154.231 -18.6855
c41.5 -34.9971 60.6641 -94.1123 75.9658 -144.285c33.0029 -108.19 46.2891 -222.713 57.3203 -334.899zM131.156 -281.12c5.66211 -1.32812 4.47363 -0.0273438 1.18848 -0.00976562c-0.458984 0 -0.850586 0.00488281 -1.18848 0.00976562z" />
    <glyph glyph-name="asciicircum" unicode="^" horiz-adv-x="326" 
d="M273.612 549.943c5.3877 -44.4521 1.53906 -89.3633 -2.20996 -133.775c-3.25391 -38.5342 -99.459 -36.3828 -96.3398 0c2.62793 30.6357 5.30176 61.3662 4.92773 92.1416c-0.0761719 6.14355 0.207031 14.7529 0.117188 24.0781
c-1.53906 -2.4209 -3.05176 -4.86035 -4.52832 -7.32715c-13.7227 -22.9258 -24.1504 -47.3281 -32.04 -72.8242c-10.3203 -33.3496 -104.806 -25.6582 -92.4248 14.5273c21.0723 68.4092 73.0947 171.712 158.76 161.396
c46.7031 -5.62598 58.7246 -36.8516 63.7383 -78.2168zM215.513 576.223c1.8457 1.10254 1.91309 1.57031 0 0z" />
    <glyph glyph-name="underscore" unicode="_" horiz-adv-x="470" 
d="M389.562 -101.601c12.7949 -1.30469 33.8135 -10.5947 30.4473 -26.5811c-3.51953 -16.7197 -27.8359 -20.6846 -41.752 -21.0088c-47.7832 -1.10742 -95.5527 0.755859 -143.354 0.229492c-47.4951 -0.526367 -95.8633 -5.73828 -143.255 -3.55566
c-13.4707 0.621094 -37.752 4.08203 -41.2666 20.7656c-3.46973 16.4902 17.4531 24.002 30.0996 26.2793c50.0195 9.00586 103.689 7.83105 154.425 8.54688c51.6719 0.729492 103.218 0.576172 154.655 -4.67578z" />
    <glyph glyph-name="grave" unicode="`" horiz-adv-x="200" 
d="M148.854 509.096c12.3271 -29.1816 -62.1963 -37.2891 -71.5352 -11.2393c-12.0479 33.584 -59.5654 139.659 8.73535 138.781c9.89648 -0.125977 25.8604 -7.38086 21.8184 -16.2559c11.332 -37.9355 25.5762 -74.8135 40.9814 -111.286z" />
    <glyph glyph-name="a" unicode="a" horiz-adv-x="506" 
d="M493.521 228.546c4.73926 15.3428 47.9854 11.9609 42.5801 -6.68945c-20.248 -69.9668 -42.8818 -145.199 -84.0801 -206.155c-35.3252 -52.2656 -107.353 -67.082 -160.608 -31.8516c-46.1357 30.5186 -61.0195 86.1777 -65.709 140.608
c-2.07031 -7.32715 -4.2168 -14.6318 -6.53906 -21.8779c-12.0391 -37.6074 -28.0791 -78.7119 -65.7939 -97.0518c-34.1416 -16.6025 -86.0205 -11.332 -116.48 10.415c-37.8594 27.0303 -50.1914 73.9531 -55.8574 117.853
c-6.00879 46.5225 -2.79102 92.708 6.99805 138.483c16.7959 78.5352 76.6807 177.566 170.091 168.628c38.6201 -3.69922 63.873 -24.6494 81.9072 -53.0078c2.03906 9.95508 4.00586 19.9238 5.8291 29.9238c0.337891 1.8457 1.14844 3.47461 2.28711 4.91504
c9.52344 20.8691 36.6797 27.2373 58.8408 27.2373c17.5879 0 65.0645 -8.3125 61.459 -35.0322c-8.5332 -63.2695 -16.9219 -126.62 -20.167 -190.425c-2.96582 -58.3232 -5.26074 -118.393 5.54492 -176.091c2.21875 -11.8457 5.21582 -23.4707 10.6934 -34.29
c2.00684 -3.96094 4.08594 -7.36816 6.88965 -10.7617c2.26855 -2.74512 6.86328 -5.29199 6.74609 -6.59668c10.5361 3.84766 22.3682 19.4238 27.2959 26.2373c8.6416 11.9443 15.6045 25.3203 22.4453 38.3359c27.9443 53.166 47.9404 109.933 65.6279 167.193z
M197.8 207.599c8.33105 35.8291 17.332 71.5059 25.874 107.295c-8.93359 28.457 -20.4277 55.7305 -40.9639 76.7617c-9.46973 9.69434 -19.5508 19.4424 -31.7295 10.8506c-7.54297 -5.31934 -13.668 -15.459 -18.1104 -23.3574
c-10.6885 -18.9971 -15.1621 -39.5605 -19.5547 -60.623c-11.3779 -54.5518 -22.2607 -108.267 -21.2168 -164.34c0.508789 -27.2148 3.05566 -55.2217 8.97852 -81.8115c2.80371 -12.5928 7.77246 -35.0918 18.2188 -46.2939
c28.2461 7.74512 42.4766 52.292 50.6855 75.8975c11.9766 34.4346 19.5781 70.165 27.8184 105.621z" />
    <glyph glyph-name="a" unicode="&#xe5;" horiz-adv-x="506" 
d="M493.521 228.546c4.73926 15.3428 47.9854 11.9609 42.5801 -6.68945c-20.248 -69.9668 -42.8818 -145.199 -84.0801 -206.155c-35.3252 -52.2656 -107.353 -67.082 -160.608 -31.8516c-46.1357 30.5186 -61.0195 86.1777 -65.709 140.608
c-2.07031 -7.32715 -4.2168 -14.6318 -6.53906 -21.8779c-12.0391 -37.6074 -28.0791 -78.7119 -65.7939 -97.0518c-34.1416 -16.6025 -86.0205 -11.332 -116.48 10.415c-37.8594 27.0303 -50.1914 73.9531 -55.8574 117.853
c-6.00879 46.5225 -2.79102 92.708 6.99805 138.483c16.7959 78.5352 76.6807 177.566 170.091 168.628c38.6201 -3.69922 63.873 -24.6494 81.9072 -53.0078c2.03906 9.95508 4.00586 19.9238 5.8291 29.9238c0.337891 1.8457 1.14844 3.47461 2.28711 4.91504
c9.52344 20.8691 36.6797 27.2373 58.8408 27.2373c17.5879 0 65.0645 -8.3125 61.459 -35.0322c-8.5332 -63.2695 -16.9219 -126.62 -20.167 -190.425c-2.96582 -58.3232 -5.26074 -118.393 5.54492 -176.091c2.21875 -11.8457 5.21582 -23.4707 10.6934 -34.29
c2.00684 -3.96094 4.08594 -7.36816 6.88965 -10.7617c2.26855 -2.74512 6.86328 -5.29199 6.74609 -6.59668c10.5361 3.84766 22.3682 19.4238 27.2959 26.2373c8.6416 11.9443 15.6045 25.3203 22.4453 38.3359c27.9443 53.166 47.9404 109.933 65.6279 167.193z
M197.8 207.599c8.33105 35.8291 17.332 71.5059 25.874 107.295c-8.93359 28.457 -20.4277 55.7305 -40.9639 76.7617c-9.46973 9.69434 -19.5508 19.4424 -31.7295 10.8506c-7.54297 -5.31934 -13.668 -15.459 -18.1104 -23.3574
c-10.6885 -18.9971 -15.1621 -39.5605 -19.5547 -60.623c-11.3779 -54.5518 -22.2607 -108.267 -21.2168 -164.34c0.508789 -27.2148 3.05566 -55.2217 8.97852 -81.8115c2.80371 -12.5928 7.77246 -35.0918 18.2188 -46.2939
c28.2461 7.74512 42.4766 52.292 50.6855 75.8975c11.9766 34.4346 19.5781 70.165 27.8184 105.621z" />
    <glyph glyph-name="a" unicode="&#xe4;" horiz-adv-x="506" 
d="M493.521 228.546c4.73926 15.3428 47.9854 11.9609 42.5801 -6.68945c-20.248 -69.9668 -42.8818 -145.199 -84.0801 -206.155c-35.3252 -52.2656 -107.353 -67.082 -160.608 -31.8516c-46.1357 30.5186 -61.0195 86.1777 -65.709 140.608
c-2.07031 -7.32715 -4.2168 -14.6318 -6.53906 -21.8779c-12.0391 -37.6074 -28.0791 -78.7119 -65.7939 -97.0518c-34.1416 -16.6025 -86.0205 -11.332 -116.48 10.415c-37.8594 27.0303 -50.1914 73.9531 -55.8574 117.853
c-6.00879 46.5225 -2.79102 92.708 6.99805 138.483c16.7959 78.5352 76.6807 177.566 170.091 168.628c38.6201 -3.69922 63.873 -24.6494 81.9072 -53.0078c2.03906 9.95508 4.00586 19.9238 5.8291 29.9238c0.337891 1.8457 1.14844 3.47461 2.28711 4.91504
c9.52344 20.8691 36.6797 27.2373 58.8408 27.2373c17.5879 0 65.0645 -8.3125 61.459 -35.0322c-8.5332 -63.2695 -16.9219 -126.62 -20.167 -190.425c-2.96582 -58.3232 -5.26074 -118.393 5.54492 -176.091c2.21875 -11.8457 5.21582 -23.4707 10.6934 -34.29
c2.00684 -3.96094 4.08594 -7.36816 6.88965 -10.7617c2.26855 -2.74512 6.86328 -5.29199 6.74609 -6.59668c10.5361 3.84766 22.3682 19.4238 27.2959 26.2373c8.6416 11.9443 15.6045 25.3203 22.4453 38.3359c27.9443 53.166 47.9404 109.933 65.6279 167.193z
M197.8 207.599c8.33105 35.8291 17.332 71.5059 25.874 107.295c-8.93359 28.457 -20.4277 55.7305 -40.9639 76.7617c-9.46973 9.69434 -19.5508 19.4424 -31.7295 10.8506c-7.54297 -5.31934 -13.668 -15.459 -18.1104 -23.3574
c-10.6885 -18.9971 -15.1621 -39.5605 -19.5547 -60.623c-11.3779 -54.5518 -22.2607 -108.267 -21.2168 -164.34c0.508789 -27.2148 3.05566 -55.2217 8.97852 -81.8115c2.80371 -12.5928 7.77246 -35.0918 18.2188 -46.2939
c28.2461 7.74512 42.4766 52.292 50.6855 75.8975c11.9766 34.4346 19.5781 70.165 27.8184 105.621z" />
    <glyph glyph-name="a" unicode="&#xe3;" horiz-adv-x="506" 
d="M493.521 228.546c4.73926 15.3428 47.9854 11.9609 42.5801 -6.68945c-20.248 -69.9668 -42.8818 -145.199 -84.0801 -206.155c-35.3252 -52.2656 -107.353 -67.082 -160.608 -31.8516c-46.1357 30.5186 -61.0195 86.1777 -65.709 140.608
c-2.07031 -7.32715 -4.2168 -14.6318 -6.53906 -21.8779c-12.0391 -37.6074 -28.0791 -78.7119 -65.7939 -97.0518c-34.1416 -16.6025 -86.0205 -11.332 -116.48 10.415c-37.8594 27.0303 -50.1914 73.9531 -55.8574 117.853
c-6.00879 46.5225 -2.79102 92.708 6.99805 138.483c16.7959 78.5352 76.6807 177.566 170.091 168.628c38.6201 -3.69922 63.873 -24.6494 81.9072 -53.0078c2.03906 9.95508 4.00586 19.9238 5.8291 29.9238c0.337891 1.8457 1.14844 3.47461 2.28711 4.91504
c9.52344 20.8691 36.6797 27.2373 58.8408 27.2373c17.5879 0 65.0645 -8.3125 61.459 -35.0322c-8.5332 -63.2695 -16.9219 -126.62 -20.167 -190.425c-2.96582 -58.3232 -5.26074 -118.393 5.54492 -176.091c2.21875 -11.8457 5.21582 -23.4707 10.6934 -34.29
c2.00684 -3.96094 4.08594 -7.36816 6.88965 -10.7617c2.26855 -2.74512 6.86328 -5.29199 6.74609 -6.59668c10.5361 3.84766 22.3682 19.4238 27.2959 26.2373c8.6416 11.9443 15.6045 25.3203 22.4453 38.3359c27.9443 53.166 47.9404 109.933 65.6279 167.193z
M197.8 207.599c8.33105 35.8291 17.332 71.5059 25.874 107.295c-8.93359 28.457 -20.4277 55.7305 -40.9639 76.7617c-9.46973 9.69434 -19.5508 19.4424 -31.7295 10.8506c-7.54297 -5.31934 -13.668 -15.459 -18.1104 -23.3574
c-10.6885 -18.9971 -15.1621 -39.5605 -19.5547 -60.623c-11.3779 -54.5518 -22.2607 -108.267 -21.2168 -164.34c0.508789 -27.2148 3.05566 -55.2217 8.97852 -81.8115c2.80371 -12.5928 7.77246 -35.0918 18.2188 -46.2939
c28.2461 7.74512 42.4766 52.292 50.6855 75.8975c11.9766 34.4346 19.5781 70.165 27.8184 105.621z" />
    <glyph glyph-name="a" unicode="&#xe2;" horiz-adv-x="506" 
d="M493.521 228.546c4.73926 15.3428 47.9854 11.9609 42.5801 -6.68945c-20.248 -69.9668 -42.8818 -145.199 -84.0801 -206.155c-35.3252 -52.2656 -107.353 -67.082 -160.608 -31.8516c-46.1357 30.5186 -61.0195 86.1777 -65.709 140.608
c-2.07031 -7.32715 -4.2168 -14.6318 -6.53906 -21.8779c-12.0391 -37.6074 -28.0791 -78.7119 -65.7939 -97.0518c-34.1416 -16.6025 -86.0205 -11.332 -116.48 10.415c-37.8594 27.0303 -50.1914 73.9531 -55.8574 117.853
c-6.00879 46.5225 -2.79102 92.708 6.99805 138.483c16.7959 78.5352 76.6807 177.566 170.091 168.628c38.6201 -3.69922 63.873 -24.6494 81.9072 -53.0078c2.03906 9.95508 4.00586 19.9238 5.8291 29.9238c0.337891 1.8457 1.14844 3.47461 2.28711 4.91504
c9.52344 20.8691 36.6797 27.2373 58.8408 27.2373c17.5879 0 65.0645 -8.3125 61.459 -35.0322c-8.5332 -63.2695 -16.9219 -126.62 -20.167 -190.425c-2.96582 -58.3232 -5.26074 -118.393 5.54492 -176.091c2.21875 -11.8457 5.21582 -23.4707 10.6934 -34.29
c2.00684 -3.96094 4.08594 -7.36816 6.88965 -10.7617c2.26855 -2.74512 6.86328 -5.29199 6.74609 -6.59668c10.5361 3.84766 22.3682 19.4238 27.2959 26.2373c8.6416 11.9443 15.6045 25.3203 22.4453 38.3359c27.9443 53.166 47.9404 109.933 65.6279 167.193z
M197.8 207.599c8.33105 35.8291 17.332 71.5059 25.874 107.295c-8.93359 28.457 -20.4277 55.7305 -40.9639 76.7617c-9.46973 9.69434 -19.5508 19.4424 -31.7295 10.8506c-7.54297 -5.31934 -13.668 -15.459 -18.1104 -23.3574
c-10.6885 -18.9971 -15.1621 -39.5605 -19.5547 -60.623c-11.3779 -54.5518 -22.2607 -108.267 -21.2168 -164.34c0.508789 -27.2148 3.05566 -55.2217 8.97852 -81.8115c2.80371 -12.5928 7.77246 -35.0918 18.2188 -46.2939
c28.2461 7.74512 42.4766 52.292 50.6855 75.8975c11.9766 34.4346 19.5781 70.165 27.8184 105.621z" />
    <glyph glyph-name="a" unicode="&#xe1;" horiz-adv-x="506" 
d="M493.521 228.546c4.73926 15.3428 47.9854 11.9609 42.5801 -6.68945c-20.248 -69.9668 -42.8818 -145.199 -84.0801 -206.155c-35.3252 -52.2656 -107.353 -67.082 -160.608 -31.8516c-46.1357 30.5186 -61.0195 86.1777 -65.709 140.608
c-2.07031 -7.32715 -4.2168 -14.6318 -6.53906 -21.8779c-12.0391 -37.6074 -28.0791 -78.7119 -65.7939 -97.0518c-34.1416 -16.6025 -86.0205 -11.332 -116.48 10.415c-37.8594 27.0303 -50.1914 73.9531 -55.8574 117.853
c-6.00879 46.5225 -2.79102 92.708 6.99805 138.483c16.7959 78.5352 76.6807 177.566 170.091 168.628c38.6201 -3.69922 63.873 -24.6494 81.9072 -53.0078c2.03906 9.95508 4.00586 19.9238 5.8291 29.9238c0.337891 1.8457 1.14844 3.47461 2.28711 4.91504
c9.52344 20.8691 36.6797 27.2373 58.8408 27.2373c17.5879 0 65.0645 -8.3125 61.459 -35.0322c-8.5332 -63.2695 -16.9219 -126.62 -20.167 -190.425c-2.96582 -58.3232 -5.26074 -118.393 5.54492 -176.091c2.21875 -11.8457 5.21582 -23.4707 10.6934 -34.29
c2.00684 -3.96094 4.08594 -7.36816 6.88965 -10.7617c2.26855 -2.74512 6.86328 -5.29199 6.74609 -6.59668c10.5361 3.84766 22.3682 19.4238 27.2959 26.2373c8.6416 11.9443 15.6045 25.3203 22.4453 38.3359c27.9443 53.166 47.9404 109.933 65.6279 167.193z
M197.8 207.599c8.33105 35.8291 17.332 71.5059 25.874 107.295c-8.93359 28.457 -20.4277 55.7305 -40.9639 76.7617c-9.46973 9.69434 -19.5508 19.4424 -31.7295 10.8506c-7.54297 -5.31934 -13.668 -15.459 -18.1104 -23.3574
c-10.6885 -18.9971 -15.1621 -39.5605 -19.5547 -60.623c-11.3779 -54.5518 -22.2607 -108.267 -21.2168 -164.34c0.508789 -27.2148 3.05566 -55.2217 8.97852 -81.8115c2.80371 -12.5928 7.77246 -35.0918 18.2188 -46.2939
c28.2461 7.74512 42.4766 52.292 50.6855 75.8975c11.9766 34.4346 19.5781 70.165 27.8184 105.621z" />
    <glyph glyph-name="b" unicode="b" horiz-adv-x="521" 
d="M515.387 221.139c14.2939 9.31641 55.7773 -3.92285 32.9775 -18.793c-38.1787 -24.8887 -79.9531 -38.9932 -122.745 -50.1143c-2.30469 -24.7266 -6.58496 -49.3359 -12.8721 -73.7109c-15.5811 -60.4023 -46.1758 -122.083 -103.383 -152.764
c-52.3691 -28.0879 -150.712 -27.1562 -182.738 32.6699c-4.63965 8.66406 -7.1416 19.0967 -8.0332 29.9795c-0.841797 -8.20898 -1.65625 -16.4043 -2.4209 -24.5908c-0.319336 -3.41113 -2.08398 -6.18359 -4.73438 -8.35742
c-0.0585938 -0.418945 -0.0898438 -0.841797 -0.148438 -1.26074c-4.29785 -30.8701 -69.6514 -31.8916 -81.5693 -6.29199c-22.5391 48.4131 -26.1797 105.877 -32.4307 158.35c-6.04395 50.7178 -9.02344 101.939 -11.1299 152.958
c-4.33398 105.094 -2.08398 210.341 6.24707 315.187c3.4248 43.0615 111.03 40.708 107.664 0c-8.55078 -103.37 -11.1924 -207.149 -7.42969 -310.812c1.13379 -31.3154 3.11816 -62.5449 5.38672 -93.7656c2.58301 11.751 5.2793 23.4746 8.20508 35.1445
c17.2461 68.8594 39.8711 143.542 85.5479 199.354c33.917 41.4463 94.8145 74.6924 144.429 38.1875c20.4639 -15.0547 37.1562 -40.3477 49.7764 -62.1035c18.5918 -32.0488 28.8037 -67.5859 34.9023 -103.964c5.31934 -31.7383 7.48438 -63.5889 6.48535 -95.3135
c30.7432 9.72168 60.4834 22.0625 88.0137 40.0107zM218.591 -38.9141c-2.54688 0.211914 -1.82715 -0.517578 0 0zM258.759 5.98828c21.459 37.3818 34.7686 76.0322 43.3018 115.665c-23.1777 -6.84961 -45.9287 -15.0361 -67.8193 -25.8281
c-42.0586 -20.7344 -86.8037 -68.6025 -45.0781 -112.88c7.73242 -8.2002 17.0713 -13.124 25.5635 -19.9199c0.742188 -0.59375 2.68652 -1.37207 4.23926 -1.83105c0.791992 0.283203 1.72363 0.787109 2.67285 1.68262c14.6221 13.7676 26.8857 25.2803 37.1201 43.1113z
M319.459 305.669c1.08008 26.6973 10.1689 141.721 -43.8027 120.631c-45.0869 -17.624 -71.2539 -80.2549 -87.7754 -121.382c-34.3623 -85.5342 -52.4863 -177.238 -63.9092 -268.951c0.224609 0.710938 0.436523 1.44434 0.670898 2.1416
c8.25391 24.4473 26.6162 44.6279 47.2285 59.4443c39.4883 28.3809 88.1396 42.0762 135.657 53.3682c8.02441 50.3213 9.79785 102.087 11.9307 154.748z" />
    <glyph glyph-name="c" unicode="c" horiz-adv-x="351" 
d="M339.512 224.855c6.37695 14.8389 49.2354 10.709 42.1113 -6.62305c-20.8965 -50.8301 -41.8379 -101.916 -69.1885 -149.699c-22.5117 -39.3223 -49.6729 -79.2383 -89.8496 -102.304c-71.1904 -40.8652 -176.612 -22.5879 -219.382 50.6055
c-22.4668 38.4531 -26.0723 89.585 -25.0508 133.069c1.11621 47.6211 10.4551 94.5088 25.001 139.789c25.96 80.8086 92.7715 183.958 189.242 179.655c106.565 -4.75293 74.5928 -151.594 60.749 -217.23c-4.07715 -19.3438 -52.8955 -18.6641 -50.0693 0
c6.70996 44.3223 13.416 89.5352 6.24219 134.249c-1.26465 7.90332 -2.84863 15.7207 -5.91797 23.1514c-1.10254 2.66406 -5.64355 7.77637 -8.8252 11.7773c-1.50781 -1.34082 -3.11426 -2.6416 -4.3252 -3.91504c-5.02246 -5.2793 -9.33887 -10.9004 -13.3447 -16.9717
c-35.1094 -53.2334 -58.1748 -120.193 -70.4121 -182.504c-7.03418 -35.8291 -11.1299 -71.7305 -10.5723 -108.275c0.463867 -30.2441 1.54883 -61.3926 14.5732 -89.3145c10.3467 -22.1787 26.0811 -44.9922 53.9268 -43.0205
c29.9961 2.12402 56.959 32.4941 74.1738 54.4844c44.6328 57.0137 72.582 127.093 100.918 193.076z" />
    <glyph glyph-name="d" unicode="d" horiz-adv-x="527" 
d="M517.587 220.54c5.67969 14.1182 46.1709 10.3135 39.7441 -6.24414c-27.8906 -71.749 -58.4902 -150.456 -114.729 -205.341c-56.7344 -55.3662 -146.711 -33.9297 -184.629 32.3916c-16.4453 28.7637 -24.8115 61.8838 -28.6367 96.3994
c-3.12305 -11.8096 -6.45312 -23.5518 -10.1709 -35.168c-12.0391 -37.6074 -28.0791 -78.7119 -65.7939 -97.0518c-34.1416 -16.6025 -86.0205 -11.332 -116.48 10.415c-37.8594 27.0303 -50.1914 73.9531 -55.8574 117.853
c-6.00879 46.5225 -2.79102 92.708 6.99805 138.483c16.792 78.5352 76.6816 177.566 170.097 168.624c37.333 -3.57324 62.1494 -23.2949 80.0527 -50.2178c5.24805 60.1279 12.0664 120.225 19.9873 179.849c3.60547 27.1162 38.1885 34.7539 60.9707 34.7539
c18.5557 0 63.0752 -7.98828 60.9688 -34.7529c-11.7471 -149.271 -40.249 -298.431 -35.9512 -448.706c0.881836 -30.9551 1.20605 -66.4824 13.8975 -95.3223c2.32227 -5.27441 5.23828 -12.2139 9.28418 -16.5391c6.70117 -7.16504 5.7832 -8.06543 17.0801 -3.03809
c15.0186 6.68359 27.0078 21.0811 37.3057 33.498c43.7012 52.7109 70.543 117.195 95.8633 180.114zM197.791 207.595c8.33105 35.8291 17.332 71.5049 25.874 107.294c-8.93359 28.457 -20.4277 55.7266 -40.9639 76.7627
c-9.46973 9.69434 -19.5508 19.4424 -31.7295 10.8506c-7.54297 -5.31934 -13.668 -15.459 -18.1104 -23.3574c-10.6885 -18.9971 -15.1621 -39.5605 -19.5547 -60.623c-11.3779 -54.5518 -22.2607 -108.267 -21.2168 -164.34
c0.508789 -27.2148 3.05566 -55.2217 8.97852 -81.8115c2.80371 -12.5928 7.77246 -35.0918 18.2188 -46.2939c28.2461 7.74512 42.4766 52.292 50.6855 75.8975c11.9766 34.4346 19.5781 70.165 27.8184 105.621z" />
    <glyph glyph-name="e" unicode="e" horiz-adv-x="347" 
d="M332.476 237.39c5.33789 16.3691 51.7373 12.4814 45.4277 -7.13672c-16.8057 -52.293 -41.5859 -101.21 -74.3145 -145.361c-31.7109 -42.7783 -70.2051 -85.7412 -123.551 -99.7881c-43.2285 -11.3867 -92.1992 -6.70605 -129.743 18.4746
c-43.6377 29.2627 -65.7715 72.374 -71.5908 124.1c-5.75586 51.1992 3.89746 104.847 16.4141 154.354c12.0254 47.5762 27.6377 95.8809 58.5752 134.703c31.8057 39.9111 86.1416 64.9619 137.089 57.4365c38.165 -5.63477 68.918 -33.5967 74.7686 -72.3066
c6.66992 -44.1416 -19.8838 -85.0703 -49.6602 -115.116c-31.7969 -32.085 -68.1982 -57.4727 -112.277 -68.1436c-8.92969 -45.2178 -12.2959 -92.1094 -3.83887 -134.271c5.09961 -25.4238 13.916 -52.6885 35.2715 -69.2646
c27.6787 -21.4814 68.7021 17.3945 87.5557 36.5898c50.9287 51.8428 87.4336 116.926 109.874 185.731zM127.529 306.196c-4.57715 -13.3447 -8.97461 -27.3818 -12.998 -41.8379c25.0049 10.4014 48.2051 23.2412 68.2871 43.8184
c26.5986 27.2559 50.5645 69.8496 29.3711 107.021c-2.26367 3.96973 -10.752 16.4229 -15.2705 18.0205c1.75488 -0.981445 -5.79297 -4.80664 -8.04785 -6.70605c-9.2168 -7.76367 -14.9414 -17.0938 -20.6162 -27.5264
c-16.1211 -29.6455 -29.7715 -60.8438 -40.7256 -92.7891z" />
    <glyph glyph-name="e" unicode="&#xeb;" horiz-adv-x="347" 
d="M332.476 237.39c5.33789 16.3691 51.7373 12.4814 45.4277 -7.13672c-16.8057 -52.293 -41.5859 -101.21 -74.3145 -145.361c-31.7109 -42.7783 -70.2051 -85.7412 -123.551 -99.7881c-43.2285 -11.3867 -92.1992 -6.70605 -129.743 18.4746
c-43.6377 29.2627 -65.7715 72.374 -71.5908 124.1c-5.75586 51.1992 3.89746 104.847 16.4141 154.354c12.0254 47.5762 27.6377 95.8809 58.5752 134.703c31.8057 39.9111 86.1416 64.9619 137.089 57.4365c38.165 -5.63477 68.918 -33.5967 74.7686 -72.3066
c6.66992 -44.1416 -19.8838 -85.0703 -49.6602 -115.116c-31.7969 -32.085 -68.1982 -57.4727 -112.277 -68.1436c-8.92969 -45.2178 -12.2959 -92.1094 -3.83887 -134.271c5.09961 -25.4238 13.916 -52.6885 35.2715 -69.2646
c27.6787 -21.4814 68.7021 17.3945 87.5557 36.5898c50.9287 51.8428 87.4336 116.926 109.874 185.731zM127.529 306.196c-4.57715 -13.3447 -8.97461 -27.3818 -12.998 -41.8379c25.0049 10.4014 48.2051 23.2412 68.2871 43.8184
c26.5986 27.2559 50.5645 69.8496 29.3711 107.021c-2.26367 3.96973 -10.752 16.4229 -15.2705 18.0205c1.75488 -0.981445 -5.79297 -4.80664 -8.04785 -6.70605c-9.2168 -7.76367 -14.9414 -17.0938 -20.6162 -27.5264
c-16.1211 -29.6455 -29.7715 -60.8438 -40.7256 -92.7891z" />
    <glyph glyph-name="e" unicode="&#xea;" horiz-adv-x="347" 
d="M332.476 237.39c5.33789 16.3691 51.7373 12.4814 45.4277 -7.13672c-16.8057 -52.293 -41.5859 -101.21 -74.3145 -145.361c-31.7109 -42.7783 -70.2051 -85.7412 -123.551 -99.7881c-43.2285 -11.3867 -92.1992 -6.70605 -129.743 18.4746
c-43.6377 29.2627 -65.7715 72.374 -71.5908 124.1c-5.75586 51.1992 3.89746 104.847 16.4141 154.354c12.0254 47.5762 27.6377 95.8809 58.5752 134.703c31.8057 39.9111 86.1416 64.9619 137.089 57.4365c38.165 -5.63477 68.918 -33.5967 74.7686 -72.3066
c6.66992 -44.1416 -19.8838 -85.0703 -49.6602 -115.116c-31.7969 -32.085 -68.1982 -57.4727 -112.277 -68.1436c-8.92969 -45.2178 -12.2959 -92.1094 -3.83887 -134.271c5.09961 -25.4238 13.916 -52.6885 35.2715 -69.2646
c27.6787 -21.4814 68.7021 17.3945 87.5557 36.5898c50.9287 51.8428 87.4336 116.926 109.874 185.731zM127.529 306.196c-4.57715 -13.3447 -8.97461 -27.3818 -12.998 -41.8379c25.0049 10.4014 48.2051 23.2412 68.2871 43.8184
c26.5986 27.2559 50.5645 69.8496 29.3711 107.021c-2.26367 3.96973 -10.752 16.4229 -15.2705 18.0205c1.75488 -0.981445 -5.79297 -4.80664 -8.04785 -6.70605c-9.2168 -7.76367 -14.9414 -17.0938 -20.6162 -27.5264
c-16.1211 -29.6455 -29.7715 -60.8438 -40.7256 -92.7891z" />
    <glyph glyph-name="e" unicode="&#xe9;" horiz-adv-x="347" 
d="M332.476 237.39c5.33789 16.3691 51.7373 12.4814 45.4277 -7.13672c-16.8057 -52.293 -41.5859 -101.21 -74.3145 -145.361c-31.7109 -42.7783 -70.2051 -85.7412 -123.551 -99.7881c-43.2285 -11.3867 -92.1992 -6.70605 -129.743 18.4746
c-43.6377 29.2627 -65.7715 72.374 -71.5908 124.1c-5.75586 51.1992 3.89746 104.847 16.4141 154.354c12.0254 47.5762 27.6377 95.8809 58.5752 134.703c31.8057 39.9111 86.1416 64.9619 137.089 57.4365c38.165 -5.63477 68.918 -33.5967 74.7686 -72.3066
c6.66992 -44.1416 -19.8838 -85.0703 -49.6602 -115.116c-31.7969 -32.085 -68.1982 -57.4727 -112.277 -68.1436c-8.92969 -45.2178 -12.2959 -92.1094 -3.83887 -134.271c5.09961 -25.4238 13.916 -52.6885 35.2715 -69.2646
c27.6787 -21.4814 68.7021 17.3945 87.5557 36.5898c50.9287 51.8428 87.4336 116.926 109.874 185.731zM127.529 306.196c-4.57715 -13.3447 -8.97461 -27.3818 -12.998 -41.8379c25.0049 10.4014 48.2051 23.2412 68.2871 43.8184
c26.5986 27.2559 50.5645 69.8496 29.3711 107.021c-2.26367 3.96973 -10.752 16.4229 -15.2705 18.0205c1.75488 -0.981445 -5.79297 -4.80664 -8.04785 -6.70605c-9.2168 -7.76367 -14.9414 -17.0938 -20.6162 -27.5264
c-16.1211 -29.6455 -29.7715 -60.8438 -40.7256 -92.7891z" />
    <glyph glyph-name="f" unicode="f" horiz-adv-x="348" 
d="M380.017 230.892c-25.0596 -55.9199 -75.2822 -97.7676 -119.101 -138.817c-41.5186 -38.8984 -84.2695 -76.4287 -127.984 -112.82c77.541 -3.9873 157.409 -38.7812 181.249 -118.339c24.6719 -82.3477 -34.5654 -153.768 -117.336 -158.975
c-46.7295 -2.93848 -94.8145 18.0879 -125.202 53.6699c-31.5039 36.8867 -47.5078 85.2324 -58.6826 131.715c-24.6631 102.601 -29.0781 206.385 -26.1797 311.483c2.94336 106.728 8.39355 213.473 13.2139 320.119c2.15137 47.5176 116.665 47.0361 120.464 0
c7.79492 -96.4844 -1.71973 -192.964 -6.08984 -289.421c-3.28125 -72.3701 -4.46973 -145.118 0.161133 -217.483c33.6514 28.5703 66.7266 57.8105 99.0322 87.9102c43.8184 40.8291 96.2686 82.6309 121.972 137.948c7.21875 15.5312 52.499 10.8955 44.4834 -6.99023z
M269.185 -146.152c-19.7441 66.7979 -84.4785 98.5391 -149.301 98.9033c3.84766 -31.5176 9.34766 -62.7607 15.8467 -93.8955c7.11133 -34.0693 18.6504 -69.9072 40.8965 -97.3066c7.66406 -9.44238 18.6406 -20.8066 30.5713 -24.8613
c14.1045 -4.79297 28.0654 5.36914 38.1465 14.8389c27.3682 25.707 34.2451 67.1172 23.8398 102.321z" />
    <glyph glyph-name="g" unicode="g" horiz-adv-x="451" 
d="M441.299 219.271c3.15527 16.5176 44.2881 15.124 41.6914 0.00683594c-8.04688 -46.959 -48.8672 -92.9639 -82.5498 -124.36c-12.4756 -11.6299 -25.7344 -22.2471 -39.4521 -32.2109c-1.81348 -28.498 -4.6709 -56.9014 -8.93262 -85.1387
c-8.13281 -53.877 -14.9062 -116.035 -38.6699 -165.753c-20.9326 -43.7959 -54.791 -87.5957 -99.7295 -107.992c-85.5205 -38.8174 -214.953 -0.18457 -237.699 99.8457c-26.918 118.37 136.652 164.682 215.665 200.264c20.9463 9.43359 41.6943 19.3037 61.9697 30.002
c-0.422852 11.9355 -0.876953 23.8574 -1.35449 35.7617c-1.75977 43.9893 -4.47363 87.9648 -7.73242 131.918c-7.37207 -33.3184 -14.9561 -66.6182 -25.3301 -99.0273c-12.0391 -37.6074 -28.0791 -78.7119 -65.7939 -97.0518
c-34.1416 -16.6025 -86.0205 -11.332 -116.48 10.415c-37.8594 27.0303 -50.1914 73.9531 -55.8574 117.852c-6.00879 46.5225 -2.79102 92.708 6.99805 138.483c16.792 78.5352 76.6816 177.566 170.097 168.624c30.0508 -2.88086 52.0049 -16.2031 68.7656 -35.3262
c-0.207031 2.29492 -0.418945 4.59473 -0.630859 6.89453c-2.45312 26.8916 43.458 34.8936 61.2178 34.8936c21.832 0 59.0654 -7.72754 61.2168 -34.8936c7.92969 -100.251 16.9268 -202.41 14.3213 -303.728c12.8496 11.6787 25.0234 24.0918 36.041 37.5215
c16.1299 19.6631 37.3506 47.4365 42.2295 73zM197.817 207.598c8.33105 35.8291 17.332 71.5039 25.874 107.293c-8.93359 28.457 -20.4277 55.7266 -40.9639 76.7627c-9.46973 9.69434 -19.5508 19.4424 -31.7295 10.8506
c-7.54297 -5.31934 -13.668 -15.459 -18.1104 -23.3574c-10.6885 -18.9971 -15.1621 -39.5605 -19.5547 -60.623c-11.3779 -54.5518 -22.2607 -108.267 -21.2168 -164.34c0.508789 -27.2148 3.05566 -55.2217 8.97852 -81.8115
c2.80371 -12.5928 7.77246 -35.0908 18.2188 -46.293c28.2461 7.74512 42.4766 52.292 50.6855 75.8975c11.9766 34.4346 19.5781 70.165 27.8184 105.621zM254.75 -105.529c1.16113 35.123 0.84375 70.415 -0.0966797 105.664
c-43.5391 -21.6436 -88.4414 -40.4336 -131.832 -62.3828c-42.4951 -21.4951 -91.4482 -51.5498 -98.1904 -103.438c-6.26953 -48.2598 33.7588 -93.4775 76.2178 -110.58c45.8975 -18.4883 96.8799 -2.25 127.561 35.7129c16.1572 19.9873 17.8535 46.3789 20.999 70.9434
c2.73145 21.3467 4.63086 42.5537 5.3418 64.0801z" />
    <glyph glyph-name="h" unicode="h" horiz-adv-x="522" 
d="M506.933 210.81c6.07617 16.2334 52.3506 12.0977 45.4199 -7.12402c-17.7275 -49.2324 -37.6113 -97.7939 -63.332 -143.452c-21.333 -37.8682 -45.9375 -81.0518 -83.4502 -105.135c-36.9678 -23.7314 -88.0996 -21.9219 -124.041 2.68262
c-38.5391 26.3867 -58.8955 70.0918 -62.1133 116.16c-3.27637 46.8779 11.5938 96.668 20.3027 142.426c9.0332 47.4316 16.6621 95.0928 27.2432 142.2c3.06055 13.6143 6.03516 27.1338 8.05176 40.9551c0.553711 3.78906 7.21875 27.7637 5.62598 29.3213
c-6.7373 6.58398 -35.8291 -42.9902 -38.3721 -47.4414c-22.8857 -40.0332 -39.8213 -83.5088 -55.7666 -126.674c-32.917 -89.1162 -57.1572 -181.104 -73.1748 -274.713c-0.238281 -8.66797 -0.854492 -17.2871 -2.04297 -25.8154
c-4.29785 -30.8701 -69.6514 -31.8916 -81.5693 -6.29199c-22.5391 48.4131 -26.1797 105.877 -32.4307 158.35c-6.04395 50.7178 -9.02344 101.939 -11.1299 152.958c-4.33398 105.094 -2.08398 210.341 6.24707 315.187c3.4248 43.0615 111.03 40.708 107.664 0
c-8.55078 -103.37 -11.1924 -207.149 -7.42969 -310.812c1.74609 -48.1475 5.41895 -96.1016 9.21777 -144.101c14.5957 56.0146 32.2246 111.232 53.0312 165.316c16.3467 42.4902 33.8994 85.165 58.9229 123.402c19.2627 29.4297 44.3672 56.001 83.0498 46.3291
c18.4209 -4.60449 34.4746 -22.3545 46.0146 -36.666c13.0967 -16.2471 21.4814 -39.3311 26.7295 -59.3184c12.1152 -46.1533 10.5039 -95.0078 6.98926 -142.201c-3.65039 -48.998 -10.2793 -97.5684 -13.6543 -146.598
c-1.57031 -22.8086 -2.01562 -46.1484 1.67969 -68.8047c1.03027 -6.3418 3.51465 -10.9688 5.85449 -16.6797c8.06934 5.70703 17.2637 10.3066 24.4912 17.9082c7.11133 7.47559 13.5791 15.4736 19.7402 23.7461c13.9072 18.6641 25.7529 38.8857 36.7979 59.3457
c21.7646 40.3252 39.3936 82.6621 55.4336 125.539z" />
    <glyph glyph-name="i" unicode="i" horiz-adv-x="265" 
d="M252.912 228.546c4.73926 15.3428 47.9854 11.96 42.5801 -6.68652c-20.248 -69.9668 -42.8818 -145.199 -84.0801 -206.155c-35.3252 -52.2656 -107.353 -67.082 -160.608 -31.8516c-62.6035 41.4102 -67.6895 129.113 -67.8018 197.221
c-0.125977 78.2568 5.78809 157.247 21.9141 233.87c5.71582 27.1611 36.7344 35.0322 61.4609 35.0322c17.5879 0 65.0645 -8.3125 61.459 -35.0322c-8.5332 -63.2695 -16.9219 -126.62 -20.167 -190.425c-2.96582 -58.3232 -5.26074 -118.393 5.54492 -176.091
c2.21875 -11.8457 5.21582 -23.4707 10.6934 -34.29c2.00684 -3.96094 4.08594 -7.36816 6.88965 -10.7617c2.26855 -2.74512 6.86328 -5.29199 6.74609 -6.59668c10.5361 3.84766 22.3682 19.4238 27.2959 26.2373c8.6416 11.9443 15.6045 25.3203 22.4453 38.3359
c27.9443 53.166 47.9404 109.933 65.6279 167.193zM73.1084 487.152c-10.5986 -0.931641 -30.3877 0.541016 -37.9443 10.3662c-10.8379 14.0918 -12.4043 29.2725 -10.5186 46.7617c1.74219 16.1162 5.3877 31.9717 12.3281 46.6299
c13.5781 28.6738 96.6006 24.3672 85.3037 -13.4023c-3.55078 -11.873 -7.43457 -23.6826 -9.2666 -35.9648c-1.90332 -12.7725 -1.30957 -27.7188 -8.24512 -38.8398c-6.78223 -10.8828 -19.5771 -14.4883 -31.6572 -15.5508z" />
    <glyph glyph-name="i" unicode="&#xef;" horiz-adv-x="265" 
d="M252.912 228.546c4.73926 15.3428 47.9854 11.96 42.5801 -6.68652c-20.248 -69.9668 -42.8818 -145.199 -84.0801 -206.155c-35.3252 -52.2656 -107.353 -67.082 -160.608 -31.8516c-62.6035 41.4102 -67.6895 129.113 -67.8018 197.221
c-0.125977 78.2568 5.78809 157.247 21.9141 233.87c5.71582 27.1611 36.7344 35.0322 61.4609 35.0322c17.5879 0 65.0645 -8.3125 61.459 -35.0322c-8.5332 -63.2695 -16.9219 -126.62 -20.167 -190.425c-2.96582 -58.3232 -5.26074 -118.393 5.54492 -176.091
c2.21875 -11.8457 5.21582 -23.4707 10.6934 -34.29c2.00684 -3.96094 4.08594 -7.36816 6.88965 -10.7617c2.26855 -2.74512 6.86328 -5.29199 6.74609 -6.59668c10.5361 3.84766 22.3682 19.4238 27.2959 26.2373c8.6416 11.9443 15.6045 25.3203 22.4453 38.3359
c27.9443 53.166 47.9404 109.933 65.6279 167.193zM73.1084 487.152c-10.5986 -0.931641 -30.3877 0.541016 -37.9443 10.3662c-10.8379 14.0918 -12.4043 29.2725 -10.5186 46.7617c1.74219 16.1162 5.3877 31.9717 12.3281 46.6299
c13.5781 28.6738 96.6006 24.3672 85.3037 -13.4023c-3.55078 -11.873 -7.43457 -23.6826 -9.2666 -35.9648c-1.90332 -12.7725 -1.30957 -27.7188 -8.24512 -38.8398c-6.78223 -10.8828 -19.5771 -14.4883 -31.6572 -15.5508z" />
    <glyph glyph-name="i" unicode="&#xee;" horiz-adv-x="265" 
d="M252.912 228.546c4.73926 15.3428 47.9854 11.96 42.5801 -6.68652c-20.248 -69.9668 -42.8818 -145.199 -84.0801 -206.155c-35.3252 -52.2656 -107.353 -67.082 -160.608 -31.8516c-62.6035 41.4102 -67.6895 129.113 -67.8018 197.221
c-0.125977 78.2568 5.78809 157.247 21.9141 233.87c5.71582 27.1611 36.7344 35.0322 61.4609 35.0322c17.5879 0 65.0645 -8.3125 61.459 -35.0322c-8.5332 -63.2695 -16.9219 -126.62 -20.167 -190.425c-2.96582 -58.3232 -5.26074 -118.393 5.54492 -176.091
c2.21875 -11.8457 5.21582 -23.4707 10.6934 -34.29c2.00684 -3.96094 4.08594 -7.36816 6.88965 -10.7617c2.26855 -2.74512 6.86328 -5.29199 6.74609 -6.59668c10.5361 3.84766 22.3682 19.4238 27.2959 26.2373c8.6416 11.9443 15.6045 25.3203 22.4453 38.3359
c27.9443 53.166 47.9404 109.933 65.6279 167.193zM73.1084 487.152c-10.5986 -0.931641 -30.3877 0.541016 -37.9443 10.3662c-10.8379 14.0918 -12.4043 29.2725 -10.5186 46.7617c1.74219 16.1162 5.3877 31.9717 12.3281 46.6299
c13.5781 28.6738 96.6006 24.3672 85.3037 -13.4023c-3.55078 -11.873 -7.43457 -23.6826 -9.2666 -35.9648c-1.90332 -12.7725 -1.30957 -27.7188 -8.24512 -38.8398c-6.78223 -10.8828 -19.5771 -14.4883 -31.6572 -15.5508z" />
    <glyph glyph-name="i" unicode="&#xed;" horiz-adv-x="265" 
d="M252.912 228.546c4.73926 15.3428 47.9854 11.96 42.5801 -6.68652c-20.248 -69.9668 -42.8818 -145.199 -84.0801 -206.155c-35.3252 -52.2656 -107.353 -67.082 -160.608 -31.8516c-62.6035 41.4102 -67.6895 129.113 -67.8018 197.221
c-0.125977 78.2568 5.78809 157.247 21.9141 233.87c5.71582 27.1611 36.7344 35.0322 61.4609 35.0322c17.5879 0 65.0645 -8.3125 61.459 -35.0322c-8.5332 -63.2695 -16.9219 -126.62 -20.167 -190.425c-2.96582 -58.3232 -5.26074 -118.393 5.54492 -176.091
c2.21875 -11.8457 5.21582 -23.4707 10.6934 -34.29c2.00684 -3.96094 4.08594 -7.36816 6.88965 -10.7617c2.26855 -2.74512 6.86328 -5.29199 6.74609 -6.59668c10.5361 3.84766 22.3682 19.4238 27.2959 26.2373c8.6416 11.9443 15.6045 25.3203 22.4453 38.3359
c27.9443 53.166 47.9404 109.933 65.6279 167.193zM73.1084 487.152c-10.5986 -0.931641 -30.3877 0.541016 -37.9443 10.3662c-10.8379 14.0918 -12.4043 29.2725 -10.5186 46.7617c1.74219 16.1162 5.3877 31.9717 12.3281 46.6299
c13.5781 28.6738 96.6006 24.3672 85.3037 -13.4023c-3.55078 -11.873 -7.43457 -23.6826 -9.2666 -35.9648c-1.90332 -12.7725 -1.30957 -27.7188 -8.24512 -38.8398c-6.78223 -10.8828 -19.5771 -14.4883 -31.6572 -15.5508z" />
    <glyph glyph-name="j" unicode="j" horiz-adv-x="195" 
d="M185.299 219.271c3.15039 16.5176 44.2891 15.1201 41.6963 -0.00683594c-8.04688 -46.959 -48.8672 -92.9639 -82.5498 -124.36c-12.4756 -11.6299 -25.7344 -22.2471 -39.4521 -32.2109c-1.81348 -28.498 -4.6709 -56.9014 -8.93262 -85.1387
c-8.13281 -53.877 -14.9062 -116.035 -38.6699 -165.753c-20.9326 -43.7949 -54.791 -87.5947 -99.7295 -107.991c-85.5254 -38.8174 -214.958 -0.18457 -237.704 99.8457c-26.918 118.37 136.652 164.682 215.665 200.264c20.9463 9.43359 41.6943 19.3037 61.9697 30.002
c-0.422852 11.9404 -0.876953 23.8623 -1.35449 35.7666c-4.56836 114.428 -15.5635 228.771 -25.9648 342.789c-2.45312 26.8916 43.458 34.8936 61.2178 34.8936c21.832 0 59.0654 -7.72754 61.2168 -34.8936c7.92969 -100.251 16.9268 -202.41 14.3213 -303.728
c12.8496 11.6787 25.0234 24.0918 36.041 37.5215c16.1299 19.6631 37.3506 47.4365 42.2295 73zM-1.24805 -105.531c1.16113 35.123 0.84375 70.415 -0.0966797 105.664c-43.5391 -21.6436 -88.4414 -40.4336 -131.832 -62.3828
c-42.4951 -21.4951 -91.4482 -51.5498 -98.1904 -103.438c-6.26953 -48.2598 33.7588 -93.4775 76.2178 -110.58c45.8975 -18.4883 96.8799 -2.25 127.561 35.7129c16.1572 19.9873 17.8535 46.3789 20.999 70.9434c2.73145 21.3467 4.63086 42.5537 5.3418 64.0801z
M13.8037 490.167c-11.5713 -0.296875 -24.3633 3.60938 -31.0469 13.4746c-9.51465 14.0508 -9.72168 34.502 -10.2666 50.9336c-0.589844 17.8223 27.4082 22.3721 39.8027 22.6875c9.00586 0.229492 20.2754 -2.00684 28.1465 -6.64746
c4.65332 -2.74121 12.6328 -9.41992 11.6562 -16.04c-2.44336 -16.5576 -0.850586 -35.3076 -7.24609 -50.9336c-4.41992 -10.8057 -21.0361 -13.2178 -31.0459 -13.4746z" />
    <glyph glyph-name="k" unicode="k" horiz-adv-x="452" 
d="M440.026 217.727c2.47559 16.3145 43.1055 15.376 41.2148 0.00683594c-11.7334 -95.1289 -62.4551 -234.437 -173.53 -248.479c-60.6416 -7.66406 -119.667 21.8242 -165.587 58.6934c-9.06836 7.28223 -17.7188 15.0908 -25.8379 23.3535
c-1.58398 -8.07422 -3.19531 -16.1396 -4.84277 -24.1865c2.25488 -24.5459 3.15918 -49.0566 -0.158203 -72.9053c-4.29785 -30.8701 -69.6514 -31.8916 -81.5693 -6.29199c-22.5391 48.4131 -26.1797 105.877 -32.4307 158.35
c-6.04395 50.7178 -9.02344 101.939 -11.1299 152.958c-4.33398 105.094 -2.08398 210.341 6.24707 315.187c3.4248 43.0615 111.03 40.708 107.664 0c-8.55078 -103.37 -11.1924 -207.149 -7.42969 -310.812c0.855469 -23.543 2.20996 -47.041 3.77148 -70.5205
c0.634766 0.130859 1.26953 0.256836 1.89941 0.374023c5.13086 22.8584 10.667 45.627 16.9092 68.2334c20.3516 73.7061 47.5762 163.034 105.44 216.682c26.7246 24.7754 63.6562 41.207 100.462 33.3711c30.9414 -6.58887 54.4434 -31.4639 60.8076 -62.2207
c15.3115 -74.0127 -45.9189 -151.252 -93.6699 -200.898c-32.6973 -33.9932 -70.5654 -67.3564 -113.177 -89.873c7.92578 -33.8086 22.377 -68.5986 45.0195 -95.1475c22.377 -26.2432 54.7764 -55.8574 91.1816 -56.9375c40.0918 -1.18848 70.2549 53.876 86.5293 83.9756
c21.4453 39.6729 35.4648 82.5273 42.2158 127.088zM146.761 203.718c6.16992 3.07812 12.3135 6.31738 18.4072 9.97168c31.7695 19.0869 61.4424 41.959 88.8779 66.8516c43.4492 39.4258 99.2705 108.677 79.1074 172.572
c-4.18555 13.2637 -14.1631 30.2402 -28.9922 32.5713c-17.3857 2.73633 -36.7793 -14.1406 -48.2559 -25.6895c-22.4404 -22.584 -37.7061 -51.5635 -51.2617 -80.0615c-26.7969 -56.3203 -44.1152 -115.732 -57.8828 -176.216z" />
    <glyph glyph-name="l" unicode="l" horiz-adv-x="282" 
d="M273.042 220.54c5.68457 14.1182 46.1777 10.3135 39.7373 -6.24414c-27.8906 -71.749 -58.4902 -150.456 -114.729 -205.341c-56.7344 -55.3662 -146.711 -33.9297 -184.629 32.3916c-42.4678 74.2822 -31.1934 177.549 -26.4316 259.127
c5.25684 90.0889 14.7441 180.609 26.6299 270.059c3.60547 27.1162 38.1836 34.7539 60.9697 34.7539c18.5557 0 63.0752 -7.98828 60.9688 -34.7529c-11.7471 -149.271 -40.249 -298.431 -35.9512 -448.706c0.881836 -30.9551 1.20605 -66.4824 13.8975 -95.3223
c2.32227 -5.27441 5.23828 -12.2139 9.28418 -16.5391c6.70605 -7.16504 5.78809 -8.06543 17.085 -3.03809c15.0186 6.68359 27.0078 21.0811 37.3057 33.498c43.7012 52.7109 70.543 117.195 95.8633 180.114z" />
    <glyph glyph-name="m" unicode="m" horiz-adv-x="727" 
d="M715.399 224.441c4.99609 14.9824 47.4834 11.4072 41.6504 -6.54102c-15.8916 -48.8223 -32.0039 -97.6084 -51.8828 -144.986c-15.7207 -37.4541 -33.2188 -84.1387 -72.6309 -102.492c-32.9219 -15.334 -77.8467 -8.02539 -108.441 10.1211
c-38.4893 22.8271 -62.0586 71.3799 -59.9346 115.445c2.23633 46.3516 12.7676 92.0234 19.708 137.785c7.08887 46.7568 13.4932 93.707 23.3633 139.964c2.60547 12.2188 20.585 60.2578 9.05859 68.8896c-16.8506 12.6152 -41.0186 -28.9521 -47.0947 -39.4697
c-21.4639 -37.1484 -38.6611 -77.1592 -54.2695 -117.057c-31.252 -79.877 -54.0605 -162.697 -76.6084 -245.355c-0.234375 -5.16211 -0.441406 -10.3242 -0.707031 -15.4814c-2.68262 -52.1709 -133.875 -49.9346 -130.801 0
c4.89648 79.6387 9.61719 159.281 14.8555 238.897c2.62793 39.9336 6.49414 79.9307 9.86035 119.806c1.2373 14.6719 2.49707 29.5234 2.16406 44.2627c-0.125977 5.42285 -0.512695 22.7188 -6.05762 24.6719c-3.46094 1.21973 -15.9453 -12.8037 -17.7002 -14.6943
c-24.3486 -26.2021 -37.6074 -64.21 -48.7373 -97.4961c-12.6689 -37.8906 -22.2959 -76.9023 -31.3604 -115.792c-14.8613 -63.7598 -26.1357 -128.289 -31.2129 -193.512c1.70996 -23.4756 2.11035 -47.3379 -4.70312 -68.959
c-8.25 -26.1797 -62.7969 -18.3848 -74.3857 0c-19.4287 30.8242 -22.1201 75.0918 -26.0586 110.615c-3.87988 35.0371 -6.59375 70.0928 -7.64258 105.332c-2.17871 73.0986 -0.265625 146.787 8.17773 219.463c4.96875 42.7783 111.458 40.6768 107.664 0
c-4.67188 -50.1006 -8.23633 -100.139 -9.6543 -150.316c14.5322 62.2295 29.5459 129.725 64.9609 183.269c13.9922 21.1572 34.2139 42.6025 60.4121 47.0312c28.4395 4.80664 47.3057 -11.373 64.5703 -31.6123c43.543 -51.041 51.4502 -130.599 55.3662 -195.057
c1.20215 -19.8564 2.03906 -39.7266 2.5791 -59.6104c13.8887 44.4209 29.2354 88.3555 47.377 131.269c22.5117 53.2471 62.293 165.956 140.311 146.919c18.5469 -4.52344 26.6387 -16.293 36.3418 -31.6309c11.1572 -17.6338 21.6934 -33.5254 28.4717 -53.5166
c15.0684 -44.4521 19.9336 -90.9297 19.4521 -137.723c-0.477539 -46.2754 -7.14746 -91.9658 -8.8623 -138.106c-0.828125 -22.3408 -2.25 -44.4209 -3.60938 -66.748c-0.374023 -6.13867 -3.65527 -45.5371 4.02246 -48.6289
c5.81055 -2.33984 21.2295 17.0039 23.6777 20.2627c5.80566 7.71387 10.4004 16.1572 14.9053 24.6729c10.4053 19.6719 19.7305 39.9697 28.3086 60.5059c17.1475 41.0459 31.0322 83.4326 45.0967 125.604z" />
    <glyph glyph-name="n" unicode="n" horiz-adv-x="486" 
d="M473.599 222.565c4.09961 15.3691 47.5107 12.2051 42.5693 -6.68359c-12.4844 -47.8594 -24.9736 -96.3174 -44.6055 -141.85c-15.5312 -36.0322 -36.2246 -77.5459 -70.6318 -99.1172c-38.3857 -24.0645 -84.585 -11.2871 -117.764 15.1045
c-36.1445 28.7539 -48.2598 72.5264 -53.0352 116.776c-10.0811 93.4775 -6.35938 193.656 11.7109 285.874c1.78711 9.10938 13.3359 49.3359 -4.17578 42.7295c-17.0166 -6.41797 -29.2627 -38.6064 -36.8506 -53.5615
c-20.1758 -39.7588 -35.8516 -81.6104 -49.29 -124.069c-23.0293 -72.7617 -39.7178 -147.337 -61.7979 -220.368c0.53125 -14.0869 0.189453 -28.0703 -2.55566 -41.6084c-2.96582 -14.6494 -16.3418 -19.3887 -29.7803 -22.2959
c-0.674805 -0.148438 -1.35449 -0.291992 -2.03418 -0.44043c-47.8096 -10.3467 -61.2217 39.5742 -66.46 75.3672c-5.96289 40.748 -6.76367 81.2314 -5.20215 122.331c3.12305 82.0596 11.125 164.128 24.4062 245.166c3.89746 23.7861 32.9443 30.5459 53.584 30.5459
c14.6318 0 57.6621 -7.46191 53.585 -30.5459c-12.2412 -69.3184 -20.2617 -139.263 -25.2803 -209.463c-0.319336 -4.51855 -0.553711 -9.02832 -0.836914 -13.542c9.59961 35.3164 19.7842 70.457 31.8682 105.03c14.0957 40.3213 30.4961 80.8496 52.5449 117.562
c17.3184 28.8311 44.4395 53.6025 80.5977 46.3477c31.9854 -6.41797 52.666 -44.3311 64.9258 -71.5732c19.9199 -44.2588 27.7373 -94.5713 32.7148 -142.61c4.71191 -45.4697 6.70117 -91.2002 11.8096 -136.634c2.60156 -23.1289 4.8252 -46.5996 6.32422 -69.8096
c0.958984 -14.9199 1.86816 -22.8633 8.77246 -33.1787c2.20996 3.11426 7.26367 5.96777 9.84277 8.87109c6.98047 7.85352 12.6064 17.1699 18.0205 26.1348c10.1221 16.7559 18.8535 34.3262 26.5273 52.3281c17.498 41.0547 29.0244 84.1523 40.4961 127.183z" />
    <glyph glyph-name="o" unicode="o" horiz-adv-x="421" 
d="M413.762 240.185c9.87012 12.165 51.6904 4.9873 38.1299 -12.7041c-33.2998 -43.4531 -84.9893 -77.6445 -142.053 -96.8574c-16.5986 -72.7393 -52.3379 -139.164 -117.804 -175.97c-60.3398 -33.9209 -144.704 -12.4893 -183.558 43.7275
c-41.9326 60.6768 -27.7959 140.112 -24.668 209.008c0.707031 15.5811 14.0381 25.9277 31.5273 31.1396c-8.23145 29.3174 -9.14551 61.2266 -5.46387 92.9922c6.89453 59.4932 26.918 121.602 80.957 154.492c50.8564 30.9551 116.79 26.1533 159.334 -16.3057
c44.3174 -44.2227 62.4863 -107.578 68.5713 -168.31c4.18555 -41.748 4.30273 -87.9199 -2.03418 -133.214c37.9854 14.6445 71.5918 40.6045 97.0605 72.001zM211.951 18.2646c21.9268 28.8535 37.2061 63.0967 47.2021 99.6104
c-55.6543 -9.46484 -112.718 -4.2168 -160.316 20.6133c-3.34375 -38.2412 -5.05371 -76.7393 10.3066 -111.695c6.87207 -15.6348 19.6943 -40.2217 37.2471 -45.7705c25.9551 -8.20508 51.6533 18.9385 65.5605 37.2422zM267.574 155.721
c9.57715 55.0967 8.80273 112.812 1.72754 163.483c-6.9043 49.3945 -23.6914 100.927 -59.7012 136.985c-42.166 42.2246 -96.9248 17.3633 -123.303 -29.2266c-24.5869 -43.4268 -32.2285 -101.111 -16.8496 -148.858c5.16699 -16.04 12.291 -32.6875 21.3643 -48.3135
c6.47656 -4.81152 10.9229 -10.959 12.1289 -18.4844c13.7314 -18.6553 30.6855 -34.5332 50.9746 -44.0742c32.5166 -15.293 75.8262 -17.0029 113.658 -11.5117z" />
    <glyph glyph-name="o" unicode="&#xf6;" horiz-adv-x="421" 
d="M413.762 240.185c9.87012 12.165 51.6904 4.9873 38.1299 -12.7041c-33.2998 -43.4531 -84.9893 -77.6445 -142.053 -96.8574c-16.5986 -72.7393 -52.3379 -139.164 -117.804 -175.97c-60.3398 -33.9209 -144.704 -12.4893 -183.558 43.7275
c-41.9326 60.6768 -27.7959 140.112 -24.668 209.008c0.707031 15.5811 14.0381 25.9277 31.5273 31.1396c-8.23145 29.3174 -9.14551 61.2266 -5.46387 92.9922c6.89453 59.4932 26.918 121.602 80.957 154.492c50.8564 30.9551 116.79 26.1533 159.334 -16.3057
c44.3174 -44.2227 62.4863 -107.578 68.5713 -168.31c4.18555 -41.748 4.30273 -87.9199 -2.03418 -133.214c37.9854 14.6445 71.5918 40.6045 97.0605 72.001zM211.951 18.2646c21.9268 28.8535 37.2061 63.0967 47.2021 99.6104
c-55.6543 -9.46484 -112.718 -4.2168 -160.316 20.6133c-3.34375 -38.2412 -5.05371 -76.7393 10.3066 -111.695c6.87207 -15.6348 19.6943 -40.2217 37.2471 -45.7705c25.9551 -8.20508 51.6533 18.9385 65.5605 37.2422zM267.574 155.721
c9.57715 55.0967 8.80273 112.812 1.72754 163.483c-6.9043 49.3945 -23.6914 100.927 -59.7012 136.985c-42.166 42.2246 -96.9248 17.3633 -123.303 -29.2266c-24.5869 -43.4268 -32.2285 -101.111 -16.8496 -148.858c5.16699 -16.04 12.291 -32.6875 21.3643 -48.3135
c6.47656 -4.81152 10.9229 -10.959 12.1289 -18.4844c13.7314 -18.6553 30.6855 -34.5332 50.9746 -44.0742c32.5166 -15.293 75.8262 -17.0029 113.658 -11.5117z" />
    <glyph glyph-name="o" unicode="&#xf5;" horiz-adv-x="421" 
d="M413.762 240.185c9.87012 12.165 51.6904 4.9873 38.1299 -12.7041c-33.2998 -43.4531 -84.9893 -77.6445 -142.053 -96.8574c-16.5986 -72.7393 -52.3379 -139.164 -117.804 -175.97c-60.3398 -33.9209 -144.704 -12.4893 -183.558 43.7275
c-41.9326 60.6768 -27.7959 140.112 -24.668 209.008c0.707031 15.5811 14.0381 25.9277 31.5273 31.1396c-8.23145 29.3174 -9.14551 61.2266 -5.46387 92.9922c6.89453 59.4932 26.918 121.602 80.957 154.492c50.8564 30.9551 116.79 26.1533 159.334 -16.3057
c44.3174 -44.2227 62.4863 -107.578 68.5713 -168.31c4.18555 -41.748 4.30273 -87.9199 -2.03418 -133.214c37.9854 14.6445 71.5918 40.6045 97.0605 72.001zM211.951 18.2646c21.9268 28.8535 37.2061 63.0967 47.2021 99.6104
c-55.6543 -9.46484 -112.718 -4.2168 -160.316 20.6133c-3.34375 -38.2412 -5.05371 -76.7393 10.3066 -111.695c6.87207 -15.6348 19.6943 -40.2217 37.2471 -45.7705c25.9551 -8.20508 51.6533 18.9385 65.5605 37.2422zM267.574 155.721
c9.57715 55.0967 8.80273 112.812 1.72754 163.483c-6.9043 49.3945 -23.6914 100.927 -59.7012 136.985c-42.166 42.2246 -96.9248 17.3633 -123.303 -29.2266c-24.5869 -43.4268 -32.2285 -101.111 -16.8496 -148.858c5.16699 -16.04 12.291 -32.6875 21.3643 -48.3135
c6.47656 -4.81152 10.9229 -10.959 12.1289 -18.4844c13.7314 -18.6553 30.6855 -34.5332 50.9746 -44.0742c32.5166 -15.293 75.8262 -17.0029 113.658 -11.5117z" />
    <glyph glyph-name="o" unicode="&#xf4;" horiz-adv-x="421" 
d="M413.762 240.185c9.87012 12.165 51.6904 4.9873 38.1299 -12.7041c-33.2998 -43.4531 -84.9893 -77.6445 -142.053 -96.8574c-16.5986 -72.7393 -52.3379 -139.164 -117.804 -175.97c-60.3398 -33.9209 -144.704 -12.4893 -183.558 43.7275
c-41.9326 60.6768 -27.7959 140.112 -24.668 209.008c0.707031 15.5811 14.0381 25.9277 31.5273 31.1396c-8.23145 29.3174 -9.14551 61.2266 -5.46387 92.9922c6.89453 59.4932 26.918 121.602 80.957 154.492c50.8564 30.9551 116.79 26.1533 159.334 -16.3057
c44.3174 -44.2227 62.4863 -107.578 68.5713 -168.31c4.18555 -41.748 4.30273 -87.9199 -2.03418 -133.214c37.9854 14.6445 71.5918 40.6045 97.0605 72.001zM211.951 18.2646c21.9268 28.8535 37.2061 63.0967 47.2021 99.6104
c-55.6543 -9.46484 -112.718 -4.2168 -160.316 20.6133c-3.34375 -38.2412 -5.05371 -76.7393 10.3066 -111.695c6.87207 -15.6348 19.6943 -40.2217 37.2471 -45.7705c25.9551 -8.20508 51.6533 18.9385 65.5605 37.2422zM267.574 155.721
c9.57715 55.0967 8.80273 112.812 1.72754 163.483c-6.9043 49.3945 -23.6914 100.927 -59.7012 136.985c-42.166 42.2246 -96.9248 17.3633 -123.303 -29.2266c-24.5869 -43.4268 -32.2285 -101.111 -16.8496 -148.858c5.16699 -16.04 12.291 -32.6875 21.3643 -48.3135
c6.47656 -4.81152 10.9229 -10.959 12.1289 -18.4844c13.7314 -18.6553 30.6855 -34.5332 50.9746 -44.0742c32.5166 -15.293 75.8262 -17.0029 113.658 -11.5117z" />
    <glyph glyph-name="o" unicode="&#xf3;" horiz-adv-x="421" 
d="M413.762 240.185c9.87012 12.165 51.6904 4.9873 38.1299 -12.7041c-33.2998 -43.4531 -84.9893 -77.6445 -142.053 -96.8574c-16.5986 -72.7393 -52.3379 -139.164 -117.804 -175.97c-60.3398 -33.9209 -144.704 -12.4893 -183.558 43.7275
c-41.9326 60.6768 -27.7959 140.112 -24.668 209.008c0.707031 15.5811 14.0381 25.9277 31.5273 31.1396c-8.23145 29.3174 -9.14551 61.2266 -5.46387 92.9922c6.89453 59.4932 26.918 121.602 80.957 154.492c50.8564 30.9551 116.79 26.1533 159.334 -16.3057
c44.3174 -44.2227 62.4863 -107.578 68.5713 -168.31c4.18555 -41.748 4.30273 -87.9199 -2.03418 -133.214c37.9854 14.6445 71.5918 40.6045 97.0605 72.001zM211.951 18.2646c21.9268 28.8535 37.2061 63.0967 47.2021 99.6104
c-55.6543 -9.46484 -112.718 -4.2168 -160.316 20.6133c-3.34375 -38.2412 -5.05371 -76.7393 10.3066 -111.695c6.87207 -15.6348 19.6943 -40.2217 37.2471 -45.7705c25.9551 -8.20508 51.6533 18.9385 65.5605 37.2422zM267.574 155.721
c9.57715 55.0967 8.80273 112.812 1.72754 163.483c-6.9043 49.3945 -23.6914 100.927 -59.7012 136.985c-42.166 42.2246 -96.9248 17.3633 -123.303 -29.2266c-24.5869 -43.4268 -32.2285 -101.111 -16.8496 -148.858c5.16699 -16.04 12.291 -32.6875 21.3643 -48.3135
c6.47656 -4.81152 10.9229 -10.959 12.1289 -18.4844c13.7314 -18.6553 30.6855 -34.5332 50.9746 -44.0742c32.5166 -15.293 75.8262 -17.0029 113.658 -11.5117z" />
    <glyph glyph-name="p" unicode="p" horiz-adv-x="512" 
d="M540.406 208.023c7.83594 -5.44531 9.2627 -14.0195 0.00976562 -19.1904c-36.8467 -20.5498 -76.8838 -30.3389 -117.942 -34.9609c-5.92773 -21.3916 -13.8896 -42.0312 -24.2051 -61.1816c-35.1543 -65.25 -105.846 -100.125 -179.151 -95.9258
c-31.0449 1.77734 -64.9971 10.4189 -88.7109 31.8057c-13.709 -88.4551 -22.5352 -177.607 -26.6758 -267.044c0.0761719 -15.4824 0.0712891 -30.9688 -0.0322266 -46.4512c-0.234375 -34.2812 -78.3779 -31.6035 -84.5254 0
c-23.5107 120.818 -30.8555 244.707 -31.8818 367.632c-1.01758 122.115 0.0126953 246.399 14.0635 367.826c5.06348 43.7637 113.703 43.1787 111.602 0c-5.75195 -118.249 -14.0146 -235.81 -14.2578 -354.257c9.23047 50.1865 20.1445 100.026 32.958 149.312
c16.9443 65.1689 36.0049 138.354 76.4922 193.36c34.8301 47.3281 93.4912 69.0391 144.996 32.2197c23.9521 -17.1201 41.6348 -46.2305 55.2178 -71.8701c16.7021 -31.5361 24.0107 -69.7422 26.6387 -105.081c2.69141 -36.207 1.13379 -74.5615 -5.90039 -111.638
c26.9141 4.24414 53.0898 11.792 77.6406 25.4424c9.06445 5.04102 24.7939 6.1709 33.665 0.000976562zM241.562 67.7969c26.8682 21.1934 43.6738 50.6162 56.3389 81.7783c-8.3623 -0.15332 -16.7197 -0.396484 -25.0684 -0.84668
c-26.6846 -1.43164 -78.1357 -5.75684 -85.7148 -38.5078c-4.54102 -19.627 2.68262 -49.3584 25.0234 -54.6289c6.98535 -1.64746 20.4824 5.15723 29.4209 12.2051zM343.433 373.534c1.88086 28.0977 6.36914 53.792 -15.873 75.5078
c-8.52441 8.32617 -21.0137 17.1787 -33.498 16.6436c-13.4297 -0.576172 -25.6309 -12.2998 -34.3125 -21.4453c-39.1279 -41.208 -57.1211 -104.032 -73.3008 -157.095c-14.5684 -47.7783 -25.9863 -96.4932 -35.8789 -145.464
c42.2334 30.0371 98.7607 34.4746 150.09 35.1855c2.43945 0.0361328 4.89648 0.0498047 7.34473 0.0722656c1.4043 4.14062 2.78613 8.28125 4.12305 12.4033c19.4512 60.0107 27.1113 121.565 31.3057 184.191z" />
    <glyph glyph-name="q" unicode="q" horiz-adv-x="491" 
d="M482.545 223.231c6.83691 13.5469 47.1289 9.65527 39.7393 -6.24121c-38.332 -82.4561 -114.653 -156.978 -202.928 -184.639c0.427734 -50.2451 1.98047 -100.48 4.77539 -150.648c3.53711 -63.4492 14.2803 -129.32 10.3418 -192.806
c-1.99805 -32.2021 -79.1875 -35.5732 -87.8516 -6.77832c-18.2676 60.7129 -21.0488 127.84 -25.1396 190.799c-4.18555 64.4033 -6.43164 128.942 -6.71973 193.481c-0.0361328 7.61523 -0.0449219 15.2344 -0.03125 22.8535
c-11.6699 -33.6064 -28.0654 -67.5361 -61.3613 -83.7246c-34.1416 -16.6025 -86.0205 -11.332 -116.48 10.415c-37.8594 27.0303 -50.1914 73.9531 -55.8574 117.852c-6.00879 46.5225 -2.79102 92.708 6.99805 138.483c16.792 78.5352 76.6816 177.566 170.097 168.624
c32.4902 -3.11035 55.5059 -18.4443 72.7383 -40.1104c1.92578 17.3271 4.02734 34.6318 6.3584 51.9004c5.61719 41.6309 109.271 39.6729 105.202 0c-13.0342 -127.079 -22.791 -254.077 -23.2227 -381.898c0 -0.283203 0.00488281 -0.571289 0.00488281 -0.854492
c29.6768 12.5166 56.9326 27.4902 82.7305 49.7412c33.6104 28.9932 60.6279 63.9541 80.6064 103.551zM222.525 310.062c0.166992 2.27246 0.357422 4.54492 0.52832 6.82715c-8.84863 27.7324 -20.2891 54.2227 -40.3438 74.7637
c-9.46973 9.69434 -19.5508 19.4424 -31.7295 10.8506c-7.54297 -5.31934 -13.668 -15.459 -18.1104 -23.3574c-10.6885 -18.9971 -15.1621 -39.5605 -19.5547 -60.623c-11.3779 -54.5518 -22.2607 -108.267 -21.2168 -164.34
c0.508789 -27.2148 3.05566 -55.2217 8.97852 -81.8115c2.80371 -12.5928 7.76758 -35.0908 18.2178 -46.293c28.2461 7.74512 42.4766 52.292 50.6855 75.8975c11.9766 34.4346 19.5781 70.165 27.8184 105.621c7.95703 34.2227 16.5264 68.3008 24.7266 102.465z" />
    <glyph glyph-name="r" unicode="r" horiz-adv-x="469" 
d="M490.87 257.062c8.74902 -4.06445 17.0098 -13.7461 7.81934 -22.3916c-62.6396 -59.1113 -176.145 -71.7266 -245.485 -16.6572c-34.1465 27.1162 -49.3086 68.0811 -52.2158 110.566c-1.61523 23.6055 0.333984 46.7607 2.2959 70.2627
c0.495117 5.93652 1.08008 11.9131 2.01172 17.7861c-0.634766 -1.22852 -1.28711 -2.44336 -1.89941 -3.68555c-7.50293 -15.248 -12.8135 -31.6035 -18.2861 -47.6572c-13.6641 -40.1094 -25.8516 -80.7275 -36.3379 -121.786
c-10.8955 -42.6699 -19.8291 -85.8486 -26.6885 -129.352c-3.07422 -19.501 -5.81055 -39.0879 -7.93945 -58.7197c-1.14355 -10.5537 -2.03027 -21.1211 -2.78223 -31.7109c0.355469 -4.09961 0.751953 -8.2041 1.23828 -12.2998
c2.32227 -19.4785 8.25 -41.5 4.50098 -60.8975c-6.25586 -32.377 -64.3857 -32.2871 -83.8018 -12.9395c-29.8926 29.7939 -34.209 77.1182 -38.4443 117.07c-4.57715 43.1699 -5.30664 86.9609 -6.47266 130.338c-2.43066 90.4033 -4.76172 182.392 2.52441 272.606
c3.65918 45.3076 114.819 45.2676 115.539 0c1.14746 -71.9424 -1.74609 -143.911 -2.0293 -215.898c12.1514 49.4395 26.6475 98.3389 43.5566 146.311c9.4873 26.9229 21.0137 55.0967 44.4482 72.9277c19.0918 14.5322 46.3291 19.0146 64.5879 0.832031
c9.85156 -9.80664 19.3252 -18.1729 24.9287 -31.4766c6.50781 -15.4414 7.80371 -32.1113 9.64941 -48.6016c3.75391 -33.5879 4.21289 -66.915 18.6504 -98.1895c10.7881 -23.3721 32.5938 -44.3184 58.1934 -50.75c28.4932 -7.16016 58.6201 9.19922 82.4551 22.9531
c11.4131 6.58398 28.124 6.86328 39.9834 1.35938z" />
    <glyph glyph-name="s" unicode="s" horiz-adv-x="341" 
d="M366.005 235.95c5.7207 -2.88965 14.0264 -11.0742 6.00195 -17.1406c-47.4316 -35.8926 -93.9766 -73.9229 -133.663 -117.912c13.9385 -25.1318 25.415 -51.4785 32.4043 -80.0166c6.43164 -26.2744 7.39062 -46.3379 0.617188 -72.7207
c-5.36426 -20.9004 -13.4609 -40.4775 -22.0703 -60.1406c-15.8057 -36.0908 -53.458 -60.5068 -93.1846 -50.5332c-38.8359 9.74805 -59.791 50.3213 -59.7188 88.0361c0.0761719 40.6445 20.1221 80.1738 41.6709 114.41
c-11.8906 17.7637 -23.9209 35.4424 -36.3066 52.9404c-28.3535 40.0508 -59.2051 78.3154 -87.0771 118.69c-25.2617 36.5947 -44.7129 79.4004 -42.5078 124.875c1.98438 40.8975 22.5029 78.8193 50.5557 107.894c48.7188 50.4922 165.343 90.7188 213.773 19.3438
c10.3467 -15.248 -34.835 -22.7012 -43.958 -10.5635c-35.6133 47.4004 -79.0303 -15.6934 -90.9844 -49.5557c-16.0449 -45.4512 -0.836914 -93.1797 22.6963 -132.794c27.2246 -45.8301 61.9961 -88.127 91.6104 -133.021c36.1357 36.5947 76.7676 68.8818 119.532 97.168
c8.01074 5.30176 22.1787 5.29297 30.6084 1.04004zM205.299 -98.2861c6.18848 22.9482 -7.34082 46.8291 -19.2812 65.2227c-6.50293 10.0225 -13.0107 20.0273 -19.5322 30.0186c-18.2002 -37.1836 -33.2588 -85.6465 -5.02246 -121.35
c10.5811 -13.376 17.9033 -11.54 28.7051 0.157227c6.46777 7.00781 12.6289 16.6709 15.1309 25.9512z" />
    <glyph glyph-name="t" unicode="t" horiz-adv-x="283" 
d="M273.606 220.54c5.68457 14.1182 46.1748 10.3135 39.7344 -6.24902c-27.8906 -71.749 -58.4902 -150.456 -114.729 -205.341c-56.7344 -55.3662 -146.711 -33.9297 -184.629 32.3916c-42.4678 74.2822 -31.1934 177.549 -26.4316 259.127
c3.57324 61.1816 9.12695 122.552 16.0264 183.661c-13.3896 0.936523 -26.293 3.00684 -37.8281 7.24609c0.418945 0.305664 0.833008 0.616211 1.25195 0.921875c-13.3086 5.60352 -20.4238 17.5615 -1.25098 24.4971c12.9795 4.69824 27.5342 6.69629 42.5439 7.39844
c1.89453 15.4688 3.84375 30.9238 5.8916 46.3389c3.60059 27.1162 38.1836 34.7539 60.9697 34.7539c18.5518 0 63.0762 -7.98828 60.9697 -34.7529c-1.2334 -15.6846 -2.68262 -31.3691 -4.23047 -47.0537c21.6211 0.0400391 43.2334 -0.360352 64.6836 -2.42578
c28.4893 -2.74512 28.5752 -32.2012 0.000976562 -34.8252c-22.8223 -2.09766 -45.8027 -2.33203 -68.7783 -2.14258c-13.209 -120.454 -31.0947 -240.994 -27.625 -362.259c0.881836 -30.9551 1.20605 -66.4824 13.8975 -95.3223
c2.32227 -5.27441 5.23828 -12.2139 9.28418 -16.5391c6.70117 -7.16504 5.7832 -8.06543 17.0801 -3.03809c15.0186 6.68359 27.0078 21.0811 37.3057 33.498c43.7012 52.7109 70.543 117.195 95.8633 180.114z" />
    <glyph glyph-name="u" unicode="u" horiz-adv-x="565" 
d="M552.303 228.546c4.73926 15.3428 47.9854 11.9609 42.585 -6.68066c-20.248 -69.9668 -42.8818 -145.199 -84.0801 -206.155c-35.3252 -52.2656 -107.353 -67.082 -160.608 -31.8516c-50.5732 33.4531 -63.6025 97.1055 -66.8066 156.239
c-16.373 -49.9707 -37.8184 -103.429 -77.4736 -137.201c-46.0146 -39.1914 -114.829 -36.3652 -161.082 0.540039c-52.3916 41.8018 -59.2236 114.05 -62.1895 176.37c-3.54688 74.4941 8.27637 149.866 18.1143 223.51c3.41602 25.5811 36.0098 32.7861 57.5225 32.7861
c16.0488 0 61.4463 -7.89844 57.5215 -32.7871c-12.3906 -78.5674 -23.291 -157.045 -25.123 -236.688c-0.751953 -32.6973 -1.63867 -68.5811 6.48047 -100.531c4.89258 -19.2402 19.835 -61.5596 45.7852 -60.3809c14.3252 0.648438 31.2744 21.5947 39.0557 31.4688
c9.90137 12.5703 17.8721 26.7559 25.1719 40.9551c15.707 30.5498 27.0889 63.085 37.4629 95.7549c17.7549 55.8926 35.6221 112.227 47.666 169.718c3.15039 23.9346 7.03906 47.752 12.0029 71.3311c5.71582 27.1611 36.7344 35.0322 61.4609 35.0322
c17.5879 0 65.0645 -8.3125 61.459 -35.0322c-8.53809 -63.2695 -16.9229 -126.62 -20.168 -190.425c-2.96582 -58.3232 -5.26074 -118.393 5.54492 -176.091c2.21875 -11.8457 5.21582 -23.4707 10.6934 -34.29c2.00684 -3.96094 4.08594 -7.36816 6.88965 -10.7617
c2.26855 -2.74512 6.86328 -5.29199 6.74609 -6.59668c10.5361 3.84766 22.3682 19.4238 27.2959 26.2373c8.6416 11.9443 15.6045 25.3203 22.4453 38.3359c27.9443 53.166 47.9404 109.933 65.6279 167.193z" />
    <glyph glyph-name="u" unicode="&#xfc;" horiz-adv-x="565" 
d="M552.303 228.546c4.73926 15.3428 47.9854 11.9609 42.585 -6.68066c-20.248 -69.9668 -42.8818 -145.199 -84.0801 -206.155c-35.3252 -52.2656 -107.353 -67.082 -160.608 -31.8516c-50.5732 33.4531 -63.6025 97.1055 -66.8066 156.239
c-16.373 -49.9707 -37.8184 -103.429 -77.4736 -137.201c-46.0146 -39.1914 -114.829 -36.3652 -161.082 0.540039c-52.3916 41.8018 -59.2236 114.05 -62.1895 176.37c-3.54688 74.4941 8.27637 149.866 18.1143 223.51c3.41602 25.5811 36.0098 32.7861 57.5225 32.7861
c16.0488 0 61.4463 -7.89844 57.5215 -32.7871c-12.3906 -78.5674 -23.291 -157.045 -25.123 -236.688c-0.751953 -32.6973 -1.63867 -68.5811 6.48047 -100.531c4.89258 -19.2402 19.835 -61.5596 45.7852 -60.3809c14.3252 0.648438 31.2744 21.5947 39.0557 31.4688
c9.90137 12.5703 17.8721 26.7559 25.1719 40.9551c15.707 30.5498 27.0889 63.085 37.4629 95.7549c17.7549 55.8926 35.6221 112.227 47.666 169.718c3.15039 23.9346 7.03906 47.752 12.0029 71.3311c5.71582 27.1611 36.7344 35.0322 61.4609 35.0322
c17.5879 0 65.0645 -8.3125 61.459 -35.0322c-8.53809 -63.2695 -16.9229 -126.62 -20.168 -190.425c-2.96582 -58.3232 -5.26074 -118.393 5.54492 -176.091c2.21875 -11.8457 5.21582 -23.4707 10.6934 -34.29c2.00684 -3.96094 4.08594 -7.36816 6.88965 -10.7617
c2.26855 -2.74512 6.86328 -5.29199 6.74609 -6.59668c10.5361 3.84766 22.3682 19.4238 27.2959 26.2373c8.6416 11.9443 15.6045 25.3203 22.4453 38.3359c27.9443 53.166 47.9404 109.933 65.6279 167.193z" />
    <glyph glyph-name="u" unicode="&#xfb;" horiz-adv-x="565" 
d="M552.303 228.546c4.73926 15.3428 47.9854 11.9609 42.585 -6.68066c-20.248 -69.9668 -42.8818 -145.199 -84.0801 -206.155c-35.3252 -52.2656 -107.353 -67.082 -160.608 -31.8516c-50.5732 33.4531 -63.6025 97.1055 -66.8066 156.239
c-16.373 -49.9707 -37.8184 -103.429 -77.4736 -137.201c-46.0146 -39.1914 -114.829 -36.3652 -161.082 0.540039c-52.3916 41.8018 -59.2236 114.05 -62.1895 176.37c-3.54688 74.4941 8.27637 149.866 18.1143 223.51c3.41602 25.5811 36.0098 32.7861 57.5225 32.7861
c16.0488 0 61.4463 -7.89844 57.5215 -32.7871c-12.3906 -78.5674 -23.291 -157.045 -25.123 -236.688c-0.751953 -32.6973 -1.63867 -68.5811 6.48047 -100.531c4.89258 -19.2402 19.835 -61.5596 45.7852 -60.3809c14.3252 0.648438 31.2744 21.5947 39.0557 31.4688
c9.90137 12.5703 17.8721 26.7559 25.1719 40.9551c15.707 30.5498 27.0889 63.085 37.4629 95.7549c17.7549 55.8926 35.6221 112.227 47.666 169.718c3.15039 23.9346 7.03906 47.752 12.0029 71.3311c5.71582 27.1611 36.7344 35.0322 61.4609 35.0322
c17.5879 0 65.0645 -8.3125 61.459 -35.0322c-8.53809 -63.2695 -16.9229 -126.62 -20.168 -190.425c-2.96582 -58.3232 -5.26074 -118.393 5.54492 -176.091c2.21875 -11.8457 5.21582 -23.4707 10.6934 -34.29c2.00684 -3.96094 4.08594 -7.36816 6.88965 -10.7617
c2.26855 -2.74512 6.86328 -5.29199 6.74609 -6.59668c10.5361 3.84766 22.3682 19.4238 27.2959 26.2373c8.6416 11.9443 15.6045 25.3203 22.4453 38.3359c27.9443 53.166 47.9404 109.933 65.6279 167.193z" />
    <glyph glyph-name="u" unicode="&#xfa;" horiz-adv-x="565" 
d="M552.303 228.546c4.73926 15.3428 47.9854 11.9609 42.585 -6.68066c-20.248 -69.9668 -42.8818 -145.199 -84.0801 -206.155c-35.3252 -52.2656 -107.353 -67.082 -160.608 -31.8516c-50.5732 33.4531 -63.6025 97.1055 -66.8066 156.239
c-16.373 -49.9707 -37.8184 -103.429 -77.4736 -137.201c-46.0146 -39.1914 -114.829 -36.3652 -161.082 0.540039c-52.3916 41.8018 -59.2236 114.05 -62.1895 176.37c-3.54688 74.4941 8.27637 149.866 18.1143 223.51c3.41602 25.5811 36.0098 32.7861 57.5225 32.7861
c16.0488 0 61.4463 -7.89844 57.5215 -32.7871c-12.3906 -78.5674 -23.291 -157.045 -25.123 -236.688c-0.751953 -32.6973 -1.63867 -68.5811 6.48047 -100.531c4.89258 -19.2402 19.835 -61.5596 45.7852 -60.3809c14.3252 0.648438 31.2744 21.5947 39.0557 31.4688
c9.90137 12.5703 17.8721 26.7559 25.1719 40.9551c15.707 30.5498 27.0889 63.085 37.4629 95.7549c17.7549 55.8926 35.6221 112.227 47.666 169.718c3.15039 23.9346 7.03906 47.752 12.0029 71.3311c5.71582 27.1611 36.7344 35.0322 61.4609 35.0322
c17.5879 0 65.0645 -8.3125 61.459 -35.0322c-8.53809 -63.2695 -16.9229 -126.62 -20.168 -190.425c-2.96582 -58.3232 -5.26074 -118.393 5.54492 -176.091c2.21875 -11.8457 5.21582 -23.4707 10.6934 -34.29c2.00684 -3.96094 4.08594 -7.36816 6.88965 -10.7617
c2.26855 -2.74512 6.86328 -5.29199 6.74609 -6.59668c10.5361 3.84766 22.3682 19.4238 27.2959 26.2373c8.6416 11.9443 15.6045 25.3203 22.4453 38.3359c27.9443 53.166 47.9404 109.933 65.6279 167.193z" />
    <glyph glyph-name="v" unicode="v" horiz-adv-x="522" 
d="M525.675 235.473c11.2695 1.70605 46.3994 -10.7764 23.3926 -22.9053c-54.6279 -28.835 -122.561 -31.1123 -184.003 -18.5957c-6.33691 -20.3564 -13.1826 -40.5195 -20.6084 -60.3672c-22.0439 -58.917 -50.6943 -121.403 -102.393 -159.978
c-54.8711 -40.9375 -132.759 -37.5352 -178.301 16.1211c-43.9482 51.7793 -63.4854 124.23 -73.7334 189.886c-11.6074 74.3457 -10.6309 150.563 -4.86523 225.382c3.63672 47.166 120.338 46.7656 119.969 0c-0.962891 -122.286 -12.084 -248.316 38.1113 -363.608
c7.38574 -16.9629 17.6289 -44.5654 35.9824 -52.3828c19.9424 -8.49707 41.2031 14.6357 52.7334 28.3721c33.1113 39.4385 53.585 91.0293 70.4307 139.091c5.81055 16.5762 11.2607 33.3232 16.3691 50.1875c-65.9971 23.3398 -110.161 73.0625 -124.729 142.35
c-12.251 58.2607 0.0712891 120.459 39.5283 165.784c35.9961 41.3467 111.817 62.2246 148.781 10.2559c37.1973 -52.3018 25.2754 -133.394 15.7432 -192.419c-5.31934 -32.958 -12.5117 -65.8125 -21.2383 -98.2617c46.8779 -10.8281 100.651 -6.21094 148.83 1.08887z
M345.55 316.293c9.36621 51.8154 17.5654 108.928 5.70605 160.968c-4.91895 21.5898 -19.0195 61.9736 -46.6895 40.6543c-16.6475 -12.8271 -25.4639 -34.5205 -32.8447 -53.4453c-17.6016 -45.1455 -19.3301 -95.0928 -1.48535 -140.612
c13.5381 -34.5332 35.0332 -57.4414 61.1191 -72.2119c5.47266 21.4053 10.2744 42.9678 14.1943 64.6475z" />
    <glyph glyph-name="w" unicode="w" horiz-adv-x="771" 
d="M793.323 258.745c6.82324 -2.51562 17.4541 -11.4502 8.54297 -18.5566c-50.9111 -40.6357 -115.485 -52.7422 -179.142 -49.3896c-25.5186 -108.091 -83.5273 -316.037 -237.214 -256.548c-64.377 24.915 -106.953 94.4092 -124.632 158.183
c-2.49316 8.99219 -4.73926 18.0967 -6.75098 27.291c-2.65527 -7.1875 -5.40918 -14.3438 -8.35742 -21.4326c-11.6611 -28.0566 -20.9688 -60.4834 -41.0508 -83.9131c-22.6113 -26.3828 -58.7246 -34.5557 -92.1777 -30.2939
c-33.9619 4.3252 -70.1602 19.1992 -92.7041 45.7842c-23.084 27.2197 -31.2754 62.7793 -35.0869 97.4111c-9.20801 83.6934 -0.139648 170.969 12.9756 253.793c4.00977 25.3252 35.1807 32.5078 57.0312 32.5078c16.6611 0 59.9297 -7.62891 57.0312 -32.5078
c-7.91211 -67.9414 -17.5303 -135.122 -18.6328 -203.657c-0.481445 -29.9736 -1.0127 -60.4609 5.21582 -89.9492c3.9248 -18.5918 13.0566 -48.2646 30.668 -58.873c12.876 -7.75488 33.0205 16.2607 42.6113 28.4443c18.2861 23.2227 29.2588 50.7666 39.2412 78.3467
c13.1504 36.333 22.6328 73.6836 29.8652 111.516c-0.0537109 23.3945 1.125 46.6719 3.44238 69.4678c4.60449 45.2939 114.406 45.7129 116.031 0c2.30859 -64.8984 -4.52344 -128.996 8.06934 -193.396c9.63086 -49.2637 30.2207 -111.444 70.1094 -144.794
c2.4082 -2.01172 7.5752 -6.9668 11.5986 -8.55078c0.0273438 0.828125 4.67676 2.39844 5.46484 3.05566c9.40137 7.83594 18.9834 13.9248 27.4219 23.2227c16.085 17.7148 29.2578 37.8369 40.5996 58.8545c23.9023 44.3086 38.8535 92.6045 50.4648 141.427
c-60.709 10.4414 -116.948 35.7529 -143.808 96.1553c-24.4785 55.0469 -21.1709 120.549 3.33008 175.028c24.2314 53.877 77.2168 105.841 140.968 96.3711c68.1211 -10.1172 78.8057 -93.1172 79.0938 -149.32c0.337891 -65.6504 -10.3467 -131.796 -24.5195 -196.024
c46.8193 -3.25879 94.4492 5.07617 131.728 35.4775c8.66406 7.06641 22.1211 8.72266 32.5713 4.87012zM602.971 383.556c1.58887 27.9941 1.96387 56.8057 -3.73438 84.3945c-3.11914 15.1133 -13.3984 59.3584 -31.7656 64.4033
c-19.9238 5.47754 -43.4121 -31.9131 -52.3506 -45.7295c-12.2236 -18.8984 -21.8867 -39.4795 -27.625 -61.2939c-11.6973 -44.457 -7.9082 -94.9492 12.29 -136.422c17.21 -35.334 46.5176 -53.5664 80.8799 -62.8242c11.0762 51.8604 19.2988 104.509 22.3057 157.472z
" />
    <glyph glyph-name="x" unicode="x" horiz-adv-x="498" 
d="M486.773 234.141c6.16113 14.9062 49.0361 10.8662 42.1094 -6.60938c-28.4707 -71.8926 -53.6924 -148.471 -103.767 -208.828c-38.4131 -46.3066 -91.1016 -83.7881 -152.04 -90.1299c-69.0664 -7.19238 -138.002 19.6631 -185.164 70.5332
c-14.4199 15.5498 -26.1895 32.7148 -36.0234 50.9199c-14.6807 -21.2207 -26.873 -43.9756 -31.6523 -69.4219c-3.77148 -20.0996 -53.4668 -17.7549 -50.0684 0c7.92578 41.4102 30.9014 74.4717 56.415 107.164c1.79102 2.2998 3.68164 4.52344 5.49512 6.80566
c-10.7119 29.2949 -18.1875 60.0029 -24.5293 90.3418c-14.748 70.5469 -26.7148 151.918 -11.2598 223.176c9.54102 43.998 113.015 48.0352 117.506 0c3.80273 -40.6904 1.24609 -81.7676 4.40527 -122.593c2.21875 -28.6777 5.31543 -57.248 9.79785 -85.624
c57.9229 54.9971 127.124 106.228 146.485 187.328c3.30371 13.8389 45.0742 11.0938 41.9238 -3.23633c-18.1104 -82.4238 -83.5938 -134.482 -140.923 -190.844c-13.2588 -13.0381 -26.1035 -26.4727 -38.6963 -40.1367
c12.8623 -59.2686 33.8086 -122.21 81.7539 -161.478c53.9717 -44.2002 126.715 -5.02734 165.78 40.7803c48.998 57.459 74.0303 133.064 102.451 201.852z" />
    <glyph glyph-name="y" unicode="y" horiz-adv-x="496" 
d="M486.896 219.271c3.15039 16.5176 44.292 15.1211 41.6953 -0.0146484c-8.04688 -46.959 -48.8672 -92.9639 -82.5498 -124.36c-12.4756 -11.6299 -25.7344 -22.2471 -39.4521 -32.2109c-1.81348 -28.498 -4.6709 -56.9014 -8.93262 -85.1387
c-8.13281 -53.877 -14.9062 -116.035 -38.6699 -165.753c-20.9326 -43.7959 -54.791 -87.5957 -99.7295 -107.992c-85.5254 -38.8174 -214.958 -0.18457 -237.704 99.8457c-26.9141 118.37 136.656 164.682 215.669 200.264c20.9502 9.43359 41.6982 19.3037 61.9736 30.002
c-0.422852 11.9404 -0.881836 23.8623 -1.35449 35.7666c-1.42676 35.7217 -3.52832 71.4297 -5.99512 107.124c-3.11426 -10.5088 -6.42676 -20.9678 -9.94141 -31.3691c-22.6064 -66.8975 -58.0986 -141.909 -139.708 -144.276
c-39.4521 -1.14746 -82.0146 14.249 -110.589 41.9639c-27.2109 26.3916 -39.417 64.8398 -44.7812 101.268c-6.46777 43.9033 -5.22559 88.9229 -3.18652 133.105c2.16016 46.7207 3.5918 95.0576 12.4531 141.014c8.25879 42.8281 114.05 45.9736 114.063 0
c0.0136719 -38.1787 -6.01758 -76.4521 -8.84375 -114.541c-2.83496 -38.1963 -4.34277 -76.4961 -4.64453 -114.796c-0.234375 -30.0283 0.395508 -61.7842 9.99121 -90.5479c6.58008 -19.7266 21.3604 -52.1846 43.3682 -59.4531
c27.125 -8.95605 51.6172 35.5869 60.8701 54.6377c14.7129 30.2891 25.4336 63.0312 35.0693 95.2334c15.7656 52.6973 26.1172 106.704 31.5762 161.31c-1.88574 20.7158 -3.78906 41.4277 -5.6748 62.126c-2.44824 26.8916 43.458 34.8936 61.2178 34.8936
c21.8369 0 59.0664 -7.72754 61.2178 -34.8936c7.93457 -100.251 16.9316 -202.41 14.3262 -303.728c12.8447 11.6787 25.0186 24.0918 36.0361 37.5215c16.1299 19.6631 37.3506 47.4365 42.2295 73zM300.347 -105.53c1.16113 35.123 0.84375 70.415 -0.0966797 105.664
c-43.5391 -21.6436 -88.4414 -40.4336 -131.832 -62.3828c-42.4951 -21.4951 -91.4482 -51.5498 -98.1904 -103.438c-6.26953 -48.2598 33.7588 -93.4775 76.2178 -110.58c45.8975 -18.4883 96.8799 -2.25 127.561 35.7129c16.1523 19.9873 17.8535 46.3789 20.999 70.9434
c2.73145 21.3467 4.63086 42.5537 5.3418 64.0801z" />
    <glyph glyph-name="y" unicode="&#xff;" horiz-adv-x="496" 
d="M486.896 219.271c3.15039 16.5176 44.292 15.1211 41.6953 -0.0146484c-8.04688 -46.959 -48.8672 -92.9639 -82.5498 -124.36c-12.4756 -11.6299 -25.7344 -22.2471 -39.4521 -32.2109c-1.81348 -28.498 -4.6709 -56.9014 -8.93262 -85.1387
c-8.13281 -53.877 -14.9062 -116.035 -38.6699 -165.753c-20.9326 -43.7959 -54.791 -87.5957 -99.7295 -107.992c-85.5254 -38.8174 -214.958 -0.18457 -237.704 99.8457c-26.9141 118.37 136.656 164.682 215.669 200.264c20.9502 9.43359 41.6982 19.3037 61.9736 30.002
c-0.422852 11.9404 -0.881836 23.8623 -1.35449 35.7666c-1.42676 35.7217 -3.52832 71.4297 -5.99512 107.124c-3.11426 -10.5088 -6.42676 -20.9678 -9.94141 -31.3691c-22.6064 -66.8975 -58.0986 -141.909 -139.708 -144.276
c-39.4521 -1.14746 -82.0146 14.249 -110.589 41.9639c-27.2109 26.3916 -39.417 64.8398 -44.7812 101.268c-6.46777 43.9033 -5.22559 88.9229 -3.18652 133.105c2.16016 46.7207 3.5918 95.0576 12.4531 141.014c8.25879 42.8281 114.05 45.9736 114.063 0
c0.0136719 -38.1787 -6.01758 -76.4521 -8.84375 -114.541c-2.83496 -38.1963 -4.34277 -76.4961 -4.64453 -114.796c-0.234375 -30.0283 0.395508 -61.7842 9.99121 -90.5479c6.58008 -19.7266 21.3604 -52.1846 43.3682 -59.4531
c27.125 -8.95605 51.6172 35.5869 60.8701 54.6377c14.7129 30.2891 25.4336 63.0312 35.0693 95.2334c15.7656 52.6973 26.1172 106.704 31.5762 161.31c-1.88574 20.7158 -3.78906 41.4277 -5.6748 62.126c-2.44824 26.8916 43.458 34.8936 61.2178 34.8936
c21.8369 0 59.0664 -7.72754 61.2178 -34.8936c7.93457 -100.251 16.9316 -202.41 14.3262 -303.728c12.8447 11.6787 25.0186 24.0918 36.0361 37.5215c16.1299 19.6631 37.3506 47.4365 42.2295 73zM300.347 -105.53c1.16113 35.123 0.84375 70.415 -0.0966797 105.664
c-43.5391 -21.6436 -88.4414 -40.4336 -131.832 -62.3828c-42.4951 -21.4951 -91.4482 -51.5498 -98.1904 -103.438c-6.26953 -48.2598 33.7588 -93.4775 76.2178 -110.58c45.8975 -18.4883 96.8799 -2.25 127.561 35.7129c16.1523 19.9873 17.8535 46.3789 20.999 70.9434
c2.73145 21.3467 4.63086 42.5537 5.3418 64.0801z" />
    <glyph glyph-name="y" unicode="&#xfd;" horiz-adv-x="496" 
d="M486.896 219.271c3.15039 16.5176 44.292 15.1211 41.6953 -0.0146484c-8.04688 -46.959 -48.8672 -92.9639 -82.5498 -124.36c-12.4756 -11.6299 -25.7344 -22.2471 -39.4521 -32.2109c-1.81348 -28.498 -4.6709 -56.9014 -8.93262 -85.1387
c-8.13281 -53.877 -14.9062 -116.035 -38.6699 -165.753c-20.9326 -43.7959 -54.791 -87.5957 -99.7295 -107.992c-85.5254 -38.8174 -214.958 -0.18457 -237.704 99.8457c-26.9141 118.37 136.656 164.682 215.669 200.264c20.9502 9.43359 41.6982 19.3037 61.9736 30.002
c-0.422852 11.9404 -0.881836 23.8623 -1.35449 35.7666c-1.42676 35.7217 -3.52832 71.4297 -5.99512 107.124c-3.11426 -10.5088 -6.42676 -20.9678 -9.94141 -31.3691c-22.6064 -66.8975 -58.0986 -141.909 -139.708 -144.276
c-39.4521 -1.14746 -82.0146 14.249 -110.589 41.9639c-27.2109 26.3916 -39.417 64.8398 -44.7812 101.268c-6.46777 43.9033 -5.22559 88.9229 -3.18652 133.105c2.16016 46.7207 3.5918 95.0576 12.4531 141.014c8.25879 42.8281 114.05 45.9736 114.063 0
c0.0136719 -38.1787 -6.01758 -76.4521 -8.84375 -114.541c-2.83496 -38.1963 -4.34277 -76.4961 -4.64453 -114.796c-0.234375 -30.0283 0.395508 -61.7842 9.99121 -90.5479c6.58008 -19.7266 21.3604 -52.1846 43.3682 -59.4531
c27.125 -8.95605 51.6172 35.5869 60.8701 54.6377c14.7129 30.2891 25.4336 63.0312 35.0693 95.2334c15.7656 52.6973 26.1172 106.704 31.5762 161.31c-1.88574 20.7158 -3.78906 41.4277 -5.6748 62.126c-2.44824 26.8916 43.458 34.8936 61.2178 34.8936
c21.8369 0 59.0664 -7.72754 61.2178 -34.8936c7.93457 -100.251 16.9316 -202.41 14.3262 -303.728c12.8447 11.6787 25.0186 24.0918 36.0361 37.5215c16.1299 19.6631 37.3506 47.4365 42.2295 73zM300.347 -105.53c1.16113 35.123 0.84375 70.415 -0.0966797 105.664
c-43.5391 -21.6436 -88.4414 -40.4336 -131.832 -62.3828c-42.4951 -21.4951 -91.4482 -51.5498 -98.1904 -103.438c-6.26953 -48.2598 33.7588 -93.4775 76.2178 -110.58c45.8975 -18.4883 96.8799 -2.25 127.561 35.7129c16.1523 19.9873 17.8535 46.3789 20.999 70.9434
c2.73145 21.3467 4.63086 42.5537 5.3418 64.0801z" />
    <glyph glyph-name="z" unicode="z" horiz-adv-x="455" 
d="M455.162 196.462c18.0342 6.65234 52.1289 -12.2832 23.5273 -22.9404c-41.1719 -15.3467 -81.875 -32.3857 -121.786 -51.1533c6.81836 -13.6416 12.251 -28.4844 15.8652 -44.75c23.2588 -104.711 -34.2412 -227.015 -116.116 -292.318
c-44.2051 -35.2529 -98.3428 -57.2295 -154.979 -60.2227c-46.8691 -2.47949 -115.436 8.05664 -135.949 57.6758c-20.5771 49.7725 9.87402 100.076 39.6367 138.246c34.8262 44.6592 78.9229 81.0781 125.459 112.929c35.3613 24.2002 72.2393 46.4014 110.125 66.8838
c-14.1406 25.7295 -34.7715 46.8145 -62.1348 59.9922c-34.9873 16.8506 -70.3125 12.998 -107.393 8.05664c-22.5479 -3.00195 -63.4316 -0.836914 -74.8672 24.2314c-8.81641 19.3301 10.2207 32.8232 28.0615 39.0879
c-0.03125 0.03125 -0.0625 0.0585938 -0.09375 0.0898438c0.341797 0.0810547 0.697266 0.15332 1.03906 0.234375c4.82031 1.62891 9.51465 2.72656 13.502 3.26172c2.39453 0.324219 4.77539 0.693359 7.14746 1.07129c2.08789 0.37793 4.18555 0.742188 6.2959 1.08887
c41.833 7.62402 80.6191 24.1416 117.268 46.0996c26.7295 16.0127 121.13 67.1709 84.7969 108.604c-26.7783 30.5322 -85.6191 36.5811 -123.289 33.3857c-43.6064 -3.69922 -84.9355 -21.3867 -118.24 -49.6006c-8.56445 -7.25977 -22.5117 -8.74902 -32.9033 -4.91895
c-7.14648 2.63281 -17.3359 11.3418 -8.62695 18.7539c44.2363 37.6562 98.8691 59.0342 156.725 63.251c52.959 3.85742 118.686 -5.3916 161.162 -40.0596c23.417 -19.1143 31.6309 -50.7939 22.0625 -79.2783c-9.27148 -27.5977 -34.3125 -51.5225 -55.5283 -70.4521
c-13.3535 -11.9131 -27.5615 -23.0156 -42.4268 -33.2275c50.7627 -13.9658 96.4121 -40.0518 126.701 -80.8135c37.8682 16.9805 76.3164 32.5439 114.959 46.793zM209.021 -165.064c50.2939 58.6162 68.917 159.813 45.4062 234.168
c-24.7129 -14.1768 -48.9619 -29.1143 -72.6348 -44.8711c-37.9492 -25.2578 -73.9492 -53.6748 -105.098 -87.0742c-28.75 -30.8291 -66.6045 -74.2959 -59.71 -119.978c6.70996 -44.4619 51.167 -52.6846 88.3779 -45.8027
c41.167 7.61035 76.7354 32.1748 103.658 63.5576z" />
    <glyph glyph-name="braceleft" unicode="{" horiz-adv-x="686" 
d="M568.594 -232.348c17.2783 11.2061 88.0635 3.09375 61.7354 -27.1504c-54.7363 -62.8867 -153.476 -87.8604 -232.047 -62.8955c-75.3535 23.9434 -129.928 89.0811 -156.266 161.608c-28.2998 77.9365 -32.6064 161.148 -42.4355 242.69
c-5.03125 41.7568 -10.4541 85.2373 -26.1387 124.568c-5.33789 13.3936 -12.3633 30.2441 -24.7354 38.8584c-11.8096 8.22266 -25.6895 6.47168 -38.998 6.0752c-27.0986 -0.805664 -79.0762 18.2139 -52.2207 51.8691c89.6074 112.299 147.903 246.462 196.901 380.418
c21.5439 58.8945 38.6826 123.177 75.5742 174.816c26.6348 37.2783 91.7314 96.6729 140.55 62.1846c20.6982 -14.627 -15.793 -23.6416 -29.2539 -17.6465c-1.16602 -0.458984 -2.91211 -1.08496 -5.36035 -1.92188c-2.68262 -1.27832 -5.28418 -2.7002 -7.81348 -4.25781
c-6.23828 -3.67676 -11.5264 -7.89355 -16.5312 -13.1094c-8.23145 -8.58301 -14.6182 -18.7002 -20.0996 -29.2051c-11.3369 -21.7334 -18.9248 -45.6318 -25.1943 -69.2559c-15.3789 -57.9541 -27.6201 -116.602 -44.1963 -174.304
c-30.7031 -106.881 -70.5469 -209.382 -131.399 -301.757c19.8789 -5.35156 38.9482 -13.6416 55.708 -27.3057c28.2822 -23.0566 41.8965 -57.7695 50.7451 -92.0732c20.2344 -78.4414 22.0801 -159.367 34.2725 -239.091
c10.1982 -66.6807 30.5498 -141.359 77.1719 -192.45c16.4268 -18.002 39.209 -37.751 65.2539 -36.2344c35.3115 2.05664 66.4463 27.1924 94.7773 45.5684z" />
    <glyph glyph-name="verticalbar" unicode="|" horiz-adv-x="241" 
d="M176.977 803.831c35.2979 -357.564 -10.2129 -717.529 -2.9043 -1075.9c0.981445 -48.165 -122.43 -48.4707 -123.415 0.000976562c-7.32715 359.279 48.8809 716.763 52.6211 1075.9c0.301758 29.0693 70.8672 28.6777 73.6982 0z" />
    </font>
</defs>
</svg>
